  0
SECTION
  2
HEADER
  9
$ACADVER
  1
AC1021
  9
$ACADMAINTVER
 70
     1
  9
$DWGCODEPAGE
  3
ANSI_936
  9
$LASTSAVEDBY
  1
thinkpad
  9
$INSBASE
 10
0.0
 20
0.0
 30
0.0
  9
$EXTMIN
 10
299.7673984317371
 20
267.4878319862237
 30
-0.0015258207003583
  9
$EXTMAX
 10
996.6091223669218
 20
802.9390143895403
 30
0.0000000349246037
  9
$LIMMIN
 10
0.0
 20
0.0
  9
$LIMMAX
 10
12.0
 20
9.0
  9
$ORTHOMODE
 70
     1
  9
$REGENMODE
 70
     1
  9
$FILLMODE
 70
     1
  9
$QTEXTMODE
 70
     0
  9
$MIRRTEXT
 70
     1
  9
$LTSCALE
 40
1.0
  9
$ATTMODE
 70
     1
  9
$TEXTSIZE
 40
0.2
  9
$TRACEWID
 40
0.05
  9
$TEXTSTYLE
  7
Standard
  9
$CLAYER
  8
0
  9
$CELTYPE
  6
ByLayer
  9
$CECOLOR
 62
   256
  9
$CELTSCALE
 40
1.0
  9
$DISPSILH
 70
     0
  9
$DIMSCALE
 40
1.0
  9
$DIMASZ
 40
0.18
  9
$DIMEXO
 40
0.0625
  9
$DIMDLI
 40
0.38
  9
$DIMRND
 40
0.0
  9
$DIMDLE
 40
0.0
  9
$DIMEXE
 40
0.18
  9
$DIMTP
 40
0.0
  9
$DIMTM
 40
0.0
  9
$DIMTXT
 40
0.18
  9
$DIMCEN
 40
0.09
  9
$DIMTSZ
 40
0.0
  9
$DIMTOL
 70
     0
  9
$DIMLIM
 70
     0
  9
$DIMTIH
 70
     1
  9
$DIMTOH
 70
     1
  9
$DIMSE1
 70
     0
  9
$DIMSE2
 70
     0
  9
$DIMTAD
 70
     0
  9
$DIMZIN
 70
     0
  9
$DIMBLK
  1

  9
$DIMASO
 70
     1
  9
$DIMSHO
 70
     1
  9
$DIMPOST
  1

  9
$DIMAPOST
  1

  9
$DIMALT
 70
     0
  9
$DIMALTD
 70
     2
  9
$DIMALTF
 40
25.4
  9
$DIMLFAC
 40
1.0
  9
$DIMTOFL
 70
     0
  9
$DIMTVP
 40
0.0
  9
$DIMTIX
 70
     0
  9
$DIMSOXD
 70
     0
  9
$DIMSAH
 70
     0
  9
$DIMBLK1
  1

  9
$DIMBLK2
  1

  9
$DIMSTYLE
  2
Standard
  9
$DIMCLRD
 70
     0
  9
$DIMCLRE
 70
     0
  9
$DIMCLRT
 70
     0
  9
$DIMTFAC
 40
1.0
  9
$DIMGAP
 40
0.09
  9
$DIMJUST
 70
     0
  9
$DIMSD1
 70
     0
  9
$DIMSD2
 70
     0
  9
$DIMTOLJ
 70
     1
  9
$DIMTZIN
 70
     0
  9
$DIMALTZ
 70
     0
  9
$DIMALTTZ
 70
     0
  9
$DIMUPT
 70
     0
  9
$DIMDEC
 70
     4
  9
$DIMTDEC
 70
     4
  9
$DIMALTU
 70
     2
  9
$DIMALTTD
 70
     2
  9
$DIMTXSTY
  7
Standard
  9
$DIMAUNIT
 70
     0
  9
$DIMADEC
 70
     0
  9
$DIMALTRND
 40
0.0
  9
$DIMAZIN
 70
     0
  9
$DIMDSEP
 70
    46
  9
$DIMATFIT
 70
     3
  9
$DIMFRAC
 70
     0
  9
$DIMLDRBLK
  1

  9
$DIMLUNIT
 70
     2
  9
$DIMLWD
 70
    -2
  9
$DIMLWE
 70
    -2
  9
$DIMTMOVE
 70
     0
  9
$DIMFXL
 40
1.0
  9
$DIMFXLON
 70
     0
  9
$DIMJOGANG
 40
0.7853981633974483
  9
$DIMTFILL
 70
     0
  9
$DIMTFILLCLR
 70
     0
  9
$DIMARCSYM
 70
     0
  9
$DIMLTYPE
  6

  9
$DIMLTEX1
  6

  9
$DIMLTEX2
  6

  9
$LUNITS
 70
     2
  9
$LUPREC
 70
     4
  9
$SKETCHINC
 40
0.1
  9
$FILLETRAD
 40
0.0
  9
$AUNITS
 70
     0
  9
$AUPREC
 70
     0
  9
$MENU
  1
.
  9
$ELEVATION
 40
0.0
  9
$PELEVATION
 40
0.0
  9
$THICKNESS
 40
0.0
  9
$LIMCHECK
 70
     0
  9
$CHAMFERA
 40
0.5
  9
$CHAMFERB
 40
0.5
  9
$CHAMFERC
 40
1.0
  9
$CHAMFERD
 40
0.0
  9
$SKPOLY
 70
     0
  9
$TDCREATE
 40
2455841.606800220
  9
$TDUCREATE
 40
2455841.273466887
  9
$TDUPDATE
 40
2457441.590988634
  9
$TDUUPDATE
 40
2457441.257655301
  9
$TDINDWG
 40
0.0407068634
  9
$TDUSRTIMER
 40
0.0407065046
  9
$USRTIMER
 70
     1
  9
$ANGBASE
 50
0.0
  9
$ANGDIR
 70
     0
  9
$PDMODE
 70
     0
  9
$PDSIZE
 40
0.0
  9
$PLINEWID
 40
0.0
  9
$SPLFRAME
 70
     0
  9
$SPLINETYPE
 70
     6
  9
$SPLINESEGS
 70
     8
  9
$HANDSEED
  5
462D
  9
$SURFTAB1
 70
     6
  9
$SURFTAB2
 70
     6
  9
$SURFTYPE
 70
     6
  9
$SURFU
 70
     6
  9
$SURFV
 70
     6
  9
$UCSBASE
  2

  9
$UCSNAME
  2

  9
$UCSORG
 10
0.0
 20
0.0
 30
0.0
  9
$UCSXDIR
 10
1.0
 20
0.0
 30
0.0
  9
$UCSYDIR
 10
0.0
 20
1.0
 30
0.0
  9
$UCSORTHOREF
  2

  9
$UCSORTHOVIEW
 70
     0
  9
$UCSORGTOP
 10
0.0
 20
0.0
 30
0.0
  9
$UCSORGBOTTOM
 10
0.0
 20
0.0
 30
0.0
  9
$UCSORGLEFT
 10
0.0
 20
0.0
 30
0.0
  9
$UCSORGRIGHT
 10
0.0
 20
0.0
 30
0.0
  9
$UCSORGFRONT
 10
0.0
 20
0.0
 30
0.0
  9
$UCSORGBACK
 10
0.0
 20
0.0
 30
0.0
  9
$PUCSBASE
  2

  9
$PUCSNAME
  2

  9
$PUCSORG
 10
0.0
 20
0.0
 30
0.0
  9
$PUCSXDIR
 10
1.0
 20
0.0
 30
0.0
  9
$PUCSYDIR
 10
0.0
 20
1.0
 30
0.0
  9
$PUCSORTHOREF
  2

  9
$PUCSORTHOVIEW
 70
     0
  9
$PUCSORGTOP
 10
0.0
 20
0.0
 30
0.0
  9
$PUCSORGBOTTOM
 10
0.0
 20
0.0
 30
0.0
  9
$PUCSORGLEFT
 10
0.0
 20
0.0
 30
0.0
  9
$PUCSORGRIGHT
 10
0.0
 20
0.0
 30
0.0
  9
$PUCSORGFRONT
 10
0.0
 20
0.0
 30
0.0
  9
$PUCSORGBACK
 10
0.0
 20
0.0
 30
0.0
  9
$USERI1
 70
     0
  9
$USERI2
 70
     0
  9
$USERI3
 70
     0
  9
$USERI4
 70
     0
  9
$USERI5
 70
     0
  9
$USERR1
 40
0.0
  9
$USERR2
 40
0.0
  9
$USERR3
 40
0.0
  9
$USERR4
 40
0.0
  9
$USERR5
 40
0.0
  9
$WORLDVIEW
 70
     1
  9
$SHADEDGE
 70
     3
  9
$SHADEDIF
 70
    70
  9
$TILEMODE
 70
     1
  9
$MAXACTVP
 70
    64
  9
$PINSBASE
 10
0.0
 20
0.0
 30
0.0
  9
$PLIMCHECK
 70
     0
  9
$PEXTMIN
 10
1.000000000000000E+20
 20
1.000000000000000E+20
 30
1.000000000000000E+20
  9
$PEXTMAX
 10
-1.000000000000000E+20
 20
-1.000000000000000E+20
 30
-1.000000000000000E+20
  9
$PLIMMIN
 10
0.0
 20
0.0
  9
$PLIMMAX
 10
12.0
 20
9.0
  9
$UNITMODE
 70
     0
  9
$VISRETAIN
 70
     1
  9
$PLINEGEN
 70
     0
  9
$PSLTSCALE
 70
     1
  9
$TREEDEPTH
 70
  3020
  9
$CMLSTYLE
  2
Standard
  9
$CMLJUST
 70
     0
  9
$CMLSCALE
 40
1.0
  9
$PROXYGRAPHICS
 70
     1
  9
$MEASUREMENT
 70
     0
  9
$CELWEIGHT
370
    -1
  9
$ENDCAPS
280
     0
  9
$JOINSTYLE
280
     0
  9
$LWDISPLAY
290
     0
  9
$INSUNITS
 70
     1
  9
$HYPERLINKBASE
  1

  9
$STYLESHEET
  1
Monochrome.ctb
  9
$XEDIT
290
     1
  9
$CEPSNTYPE
380
     0
  9
$PSTYLEMODE
290
     1
  9
$FINGERPRINTGUID
  2
{168A8766-4015-4ABD-915A-AD1ECBE2E3C2}
  9
$VERSIONGUID
  2
{BEF6C05A-4ADA-4707-809F-E1557D878BD5}
  9
$EXTNAMES
290
     1
  9
$PSVPSCALE
 40
0.0
  9
$OLESTARTUP
290
     0
  9
$SORTENTS
280
   127
  9
$INDEXCTL
280
     0
  9
$HIDETEXT
280
     0
  9
$XCLIPFRAME
290
     0
  9
$HALOGAP
280
     0
  9
$OBSCOLOR
 70
   257
  9
$OBSLTYPE
280
     0
  9
$INTERSECTIONDISPLAY
280
     0
  9
$INTERSECTIONCOLOR
 70
   257
  9
$DIMASSOC
280
     1
  9
$PROJECTNAME
  1

  9
$CAMERADISPLAY
290
     0
  9
$LENSLENGTH
 40
50.0
  9
$CAMERAHEIGHT
 40
0.0
  9
$STEPSPERSEC
 40
2.0
  9
$STEPSIZE
 40
6.0
  9
$3DDWFPREC
 40
2.0
  9
$PSOLWIDTH
 40
0.25
  9
$PSOLHEIGHT
 40
4.0
  9
$LOFTANG1
 40
1.570796326794896
  9
$LOFTANG2
 40
1.570796326794896
  9
$LOFTMAG1
 40
0.0
  9
$LOFTMAG2
 40
0.0
  9
$LOFTPARAM
 70
     7
  9
$LOFTNORMALS
280
     1
  9
$LATITUDE
 40
37.795
  9
$LONGITUDE
 40
-122.394
  9
$NORTHDIRECTION
 40
0.0
  9
$TIMEZONE
 70
 -8000
  9
$LIGHTGLYPHDISPLAY
280
     1
  9
$TILEMODELIGHTSYNCH
280
     1
  9
$CMATERIAL
347
3510
  9
$SOLIDHIST
280
     1
  9
$SHOWHIST
280
     1
  9
$DWFFRAME
280
     2
  9
$DGNFRAME
280
     0
  9
$REALWORLDSCALE
290
     1
  9
$INTERFERECOLOR
 62
     1
  9
$INTERFEREOBJVS
345
31
  9
$INTERFEREVPVS
346
2E
  9
$CSHADOW
280
     0
  9
$SHADOWPLANELOCATION
 40
0.0
  0
ENDSEC
  0
SECTION
  2
CLASSES
  0
CLASS
  1
ACDBDICTIONARYWDFLT
  2
AcDbDictionaryWithDefault
  3
ObjectDBX Classes
 90
        0
 91
        1
280
     0
281
     0
  0
CLASS
  1
VISUALSTYLE
  2
AcDbVisualStyle
  3
ObjectDBX Classes
 90
     4095
 91
       16
280
     0
281
     0
  0
CLASS
  1
DIMASSOC
  2
AcDbDimAssoc
  3
"AcDbDimAssoc|Product Desc:     AcDim ARX App For Dimension|Company:          Autodesk, Inc.|WEB Address:      www.autodesk.com"
 90
        0
 91
        0
280
     0
281
     0
  0
CLASS
  1
MATERIAL
  2
AcDbMaterial
  3
ObjectDBX Classes
 90
     1024
 91
        3
280
     0
281
     0
  0
CLASS
  1
TABLESTYLE
  2
AcDbTableStyle
  3
ObjectDBX Classes
 90
     4095
 91
        1
280
     0
281
     0
  0
CLASS
  1
DICTIONARYVAR
  2
AcDbDictionaryVar
  3
ObjectDBX Classes
 90
        0
 91
        1
280
     0
281
     0
  0
CLASS
  1
SORTENTSTABLE
  2
AcDbSortentsTable
  3
ObjectDBX Classes
 90
        0
 91
        0
280
     0
281
     0
  0
ENDSEC
  0
SECTION
  2
TABLES
  0
TABLE
  2
VPORT
  5
8
330
0
100
AcDbSymbolTable
 70
     1
  0
VPORT
  5
27
330
8
100
AcDbSymbolTableRecord
100
AcDbViewportTableRecord
  2
*Active
 70
     0
 10
0.0
 20
0.0
 11
1.0
 21
1.0
 12
1310.060516274146
 22
396.4292818323467
 13
0.0
 23
0.0
 14
0.5
 24
0.5
 15
0.5
 25
0.5
 16
0.0
 26
0.0
 36
1.0
 17
0.0
 27
0.0
 37
0.0
 40
953.4076796488101
 41
2.581488933601609
 42
50.0
 43
0.0
 44
0.0
 50
0.0
 51
0.0
 71
     0
 72
   100
 73
     1
 74
     3
 75
     1
 76
     0
 77
     0
 78
     0
281
     0
 65
     1
110
0.0
120
0.0
130
0.0
111
1.0
121
0.0
131
0.0
112
0.0
122
1.0
132
0.0
 79
     0
146
0.0
348
2D
 60
     3
 61
     5
292
     1
282
     1
141
0.0
142
0.0
 63
   250
421
  3355443
  0
ENDTAB
  0
TABLE
  2
LTYPE
  5
5
330
0
100
AcDbSymbolTable
 70
     6
  0
LTYPE
  5
14
330
5
100
AcDbSymbolTableRecord
100
AcDbLinetypeTableRecord
  2
ByBlock
 70
     0
  3

 72
    65
 73
     0
 40
0.0
  0
LTYPE
  5
15
330
5
100
AcDbSymbolTableRecord
100
AcDbLinetypeTableRecord
  2
ByLayer
 70
     0
  3

 72
    65
 73
     0
 40
0.0
  0
LTYPE
  5
16
330
5
100
AcDbSymbolTableRecord
100
AcDbLinetypeTableRecord
  2
Continuous
 70
     0
  3
Solid line
 72
    65
 73
     0
 40
0.0
  0
LTYPE
  5
5B
330
5
100
AcDbSymbolTableRecord
100
AcDbLinetypeTableRecord
  2
CENTERX2
 70
     0
  3
Center (2x) ________  __  ________  __  _____
 72
    65
 73
     4
 40
101.6
 49
63.5
 74
     4
 75
     0
340
0
 46
1.0
 50
0.0
 44
0.0
 45
0.0
 49
-12.7
 74
     4
 75
     0
340
0
 46
1.0
 50
0.0
 44
0.0
 45
0.0
 49
12.7
 74
     4
 75
     0
340
0
 46
1.0
 50
0.0
 44
0.0
 45
0.0
 49
-12.7
 74
     4
 75
     0
340
0
 46
1.0
 50
0.0
 44
0.0
 45
0.0
  0
LTYPE
  5
192
330
5
100
AcDbSymbolTableRecord
100
AcDbLinetypeTableRecord
  2
CENTER
 70
     0
  3
Center ____ _ ____ _ ____ _ ____ _ ____ _ ____
 72
    65
 73
     4
 40
50.8
 49
31.75
 74
     4
 75
     0
340
0
 46
1.0
 50
0.0
 44
0.0
 45
0.0
 49
-6.349999999999999
 74
     4
 75
     0
340
0
 46
1.0
 50
0.0
 44
0.0
 45
0.0
 49
6.349999999999999
 74
     4
 75
     0
340
0
 46
1.0
 50
0.0
 44
0.0
 45
0.0
 49
-6.349999999999999
 74
     4
 75
     0
340
0
 46
1.0
 50
0.0
 44
0.0
 45
0.0
  0
LTYPE
  5
112E
330
5
100
AcDbSymbolTableRecord
100
AcDbLinetypeTableRecord
  2
DASHED
 70
     0
  3
Dashed __ __ __ __ __ __ __ __ __ __ __ __ __ _
 72
    65
 73
     2
 40
19.05
 49
12.7
 74
     4
 75
     0
340
0
 46
1.0
 50
0.0
 44
0.0
 45
0.0
 49
-6.349999999999999
 74
     4
 75
     0
340
0
 46
1.0
 50
0.0
 44
0.0
 45
0.0
  0
LTYPE
  5
121B
330
5
100
AcDbSymbolTableRecord
100
AcDbLinetypeTableRecord
  2
ACAD_ISO02W100
 70
     0
  3
ISO dash __ __ __ __ __ __ __ __ __ __ __ __ __
 72
    65
 73
     2
 40
15.0
 49
12.0
 74
     4
 75
     0
340
0
 46
1.0
 50
0.0
 44
0.0
 45
0.0
 49
-3.0
 74
     4
 75
     0
340
0
 46
1.0
 50
0.0
 44
0.0
 45
0.0
  0
LTYPE
  5
121C
330
5
100
AcDbSymbolTableRecord
100
AcDbLinetypeTableRecord
  2
DIVIDE
 70
     0
  3
Divide ____ . . ____ . . ____ . . ____ . . ____
 72
    65
 73
     6
 40
31.75
 49
12.7
 74
     4
 75
     0
340
0
 46
1.0
 50
0.0
 44
0.0
 45
0.0
 49
-6.349999999999999
 74
     4
 75
     0
340
0
 46
1.0
 50
0.0
 44
0.0
 45
0.0
 49
0.0
 74
     4
 75
     0
340
0
 46
1.0
 50
0.0
 44
0.0
 45
0.0
 49
-6.349999999999999
 74
     4
 75
     0
340
0
 46
1.0
 50
0.0
 44
0.0
 45
0.0
 49
0.0
 74
     4
 75
     0
340
0
 46
1.0
 50
0.0
 44
0.0
 45
0.0
 49
-6.349999999999999
 74
     4
 75
     0
340
0
 46
1.0
 50
0.0
 44
0.0
 45
0.0
  0
ENDTAB
  0
TABLE
  2
LAYER
  5
2
102
{ACAD_XDICTIONARY
360
36E2
102
}
330
0
100
AcDbSymbolTable
 70
    17
  0
LAYER
  5
10
330
2
100
AcDbSymbolTableRecord
100
AcDbLayerTableRecord
  2
0
 70
     0
 62
     7
  6
Continuous
370
    -3
390
F
347
3512
  0
LAYER
  5
5C
330
2
100
AcDbSymbolTableRecord
100
AcDbLayerTableRecord
  2
粗实线
 70
     0
 62
     7
  6
Continuous
370
    30
390
F
347
3512
1001
AcAecLayerStandard
1000

1000

  0
LAYER
  5
5D
330
2
100
AcDbSymbolTableRecord
100
AcDbLayerTableRecord
  2
中心线
 70
     0
 62
     1
  6
CENTERX2
370
    15
390
F
347
3512
1001
AcAecLayerStandard
1000

1000

  0
LAYER
  5
5E
330
2
100
AcDbSymbolTableRecord
100
AcDbLayerTableRecord
  2
标注
 70
     0
 62
     4
  6
Continuous
370
    15
390
F
347
3512
1001
AcAecLayerStandard
1000

1000

  0
LAYER
  5
5F
330
2
100
AcDbSymbolTableRecord
100
AcDbLayerTableRecord
  2
Defpoints
 70
     0
 62
     7
  6
Continuous
290
     0
370
    -3
390
F
347
3512
  0
LAYER
  5
118
330
2
100
AcDbSymbolTableRecord
100
AcDbLayerTableRecord
  2
图层1粗线
 70
     0
 62
     7
  6
Continuous
370
    -3
390
F
347
3512
1001
AcAecLayerStandard
1000

1000

  0
LAYER
  5
193
330
2
100
AcDbSymbolTableRecord
100
AcDbLayerTableRecord
  2
细实线
 70
     0
 62
     3
  6
Continuous
370
    15
390
F
347
3512
1001
AcAecLayerStandard
1000

1000

  0
LAYER
  5
357
330
2
100
AcDbSymbolTableRecord
100
AcDbLayerTableRecord
  2
图层2
 70
     0
 62
     7
  6
Continuous
370
    30
390
F
347
3512
1001
AcAecLayerStandard
1000

1000

  0
LAYER
  5
358
330
2
100
AcDbSymbolTableRecord
100
AcDbLayerTableRecord
  2
图层3
 70
     0
 62
     7
  6
Continuous
370
    18
390
F
347
3512
1001
AcAecLayerStandard
1000

1000

  0
LAYER
  5
4E7
330
2
100
AcDbSymbolTableRecord
100
AcDbLayerTableRecord
  2
文字
 70
     0
 62
     1
  6
Continuous
370
    15
390
F
347
3512
1001
AcAecLayerStandard
1000

1000

  0
LAYER
  5
4E8
330
2
100
AcDbSymbolTableRecord
100
AcDbLayerTableRecord
  2
不可见
 70
     0
 62
     2
  6
Continuous
290
     0
370
    15
390
F
347
3512
1001
AcAecLayerStandard
1000

1000

  0
LAYER
  5
4E9
330
2
100
AcDbSymbolTableRecord
100
AcDbLayerTableRecord
  2
图层2细线
 70
     0
 62
     3
  6
Continuous
370
    -3
390
F
347
3512
1001
AcAecLayerStandard
1000

1000

  0
LAYER
  5
4EA
330
2
100
AcDbSymbolTableRecord
100
AcDbLayerTableRecord
  2
图框线
 70
     0
 62
     7
  6
Continuous
370
    13
390
F
347
3512
1001
AcAecLayerStandard
1000

1000

  0
LAYER
  5
4EB
330
2
100
AcDbSymbolTableRecord
100
AcDbLayerTableRecord
  2
图层 1
 70
     0
 62
     7
  6
Continuous
370
    -3
390
F
347
3512
  0
LAYER
  5
112F
330
2
100
AcDbSymbolTableRecord
100
AcDbLayerTableRecord
  2
图层1
 70
     0
 62
     7
  6
DASHED
370
    25
390
F
347
3512
1001
AcAecLayerStandard
1000

1000

  0
LAYER
  5
121D
330
2
100
AcDbSymbolTableRecord
100
AcDbLayerTableRecord
  2
虚线
 70
     0
 62
     2
  6
ACAD_ISO02W100
370
    15
390
F
347
3512
1001
AcAecLayerStandard
1000

1000

  0
LAYER
  5
121E
330
2
100
AcDbSymbolTableRecord
100
AcDbLayerTableRecord
  2
剖切线
 70
     0
 62
   241
  6
Continuous
370
    15
390
F
347
3512
1001
AcAecLayerStandard
1000

1000

  0
ENDTAB
  0
TABLE
  2
STYLE
  5
3
330
0
100
AcDbSymbolTable
 70
     7
  0
STYLE
  5
11
330
3
100
AcDbSymbolTableRecord
100
AcDbTextStyleTableRecord
  2
Standard
 70
     0
 40
0.0
 41
1.0
 50
0.0
 71
     0
 42
0.2
  3
txt
  4

  0
STYLE
  5
5A
330
3
100
AcDbSymbolTableRecord
100
AcDbTextStyleTableRecord
  2
样式 8
 70
     0
 40
10.0
 41
0.7
 50
0.0
 71
     0
 42
10.0
  3
txt.shx
  4
gbcbig.shx
  0
STYLE
  5
117
330
3
100
AcDbSymbolTableRecord
100
AcDbTextStyleTableRecord
  2
样式 1
 70
     0
 40
5.0
 41
1.0
 50
0.0
 71
     0
 42
5.0
  3
txt.shx
  4
gbcbig.shx
  0
STYLE
  5
356
330
3
100
AcDbSymbolTableRecord
100
AcDbTextStyleTableRecord
  2
样式 2
 70
     0
 40
0.0
 41
0.35
 50
0.0
 71
     0
 42
2.5
  3
txt.shx
  4
gbcbig.shx
  0
STYLE
  5
4E6
330
3
100
AcDbSymbolTableRecord
100
AcDbTextStyleTableRecord
  2
样式 3
 70
     0
 40
3.5
 41
0.7
 50
0.0
 71
     0
 42
5.0
  3
txt.shx
  4
gbcbig.shx
  0
ENDTAB
  0
TABLE
  2
VIEW
  5
6
330
0
100
AcDbSymbolTable
 70
     0
  0
ENDTAB
  0
TABLE
  2
UCS
  5
7
330
0
100
AcDbSymbolTable
 70
     0
  0
ENDTAB
  0
TABLE
  2
APPID
  5
9
330
0
100
AcDbSymbolTable
 70
    45
  0
APPID
  5
12
330
9
100
AcDbSymbolTableRecord
100
AcDbRegAppTableRecord
  2
ACAD
 70
     0
  0
APPID
  5
3B
330
9
100
AcDbSymbolTableRecord
100
AcDbRegAppTableRecord
  2
ACAD_PSEXT
 70
     0
  0
APPID
  5
3C
330
9
100
AcDbSymbolTableRecord
100
AcDbRegAppTableRecord
  2
AcAecLayerStandard
 70
     0
  0
APPID
  5
3D
330
9
100
AcDbSymbolTableRecord
100
AcDbRegAppTableRecord
  2
ACAD_DSTYLE_DIMTEXT_FILL
 70
     0
  0
APPID
  5
3E
330
9
100
AcDbSymbolTableRecord
100
AcDbRegAppTableRecord
  2
DCO15
 70
     0
  0
APPID
  5
3F
330
9
100
AcDbSymbolTableRecord
100
AcDbRegAppTableRecord
  2
ACAD_DSTYLE_DIMEXT_LENGTH
 70
     0
  0
APPID
  5
40
330
9
100
AcDbSymbolTableRecord
100
AcDbRegAppTableRecord
  2
ACAD_DSTYLE_DIMEXT_ENABLED
 70
     0
  0
APPID
  5
41
330
9
100
AcDbSymbolTableRecord
100
AcDbRegAppTableRecord
  2
ACAD_DSTYLE_DIM_LINETYPE
 70
     0
  0
APPID
  5
42
330
9
100
AcDbSymbolTableRecord
100
AcDbRegAppTableRecord
  2
ACAD_DSTYLE_DIM_EXT1_LINETYPE
 70
     0
  0
APPID
  5
43
330
9
100
AcDbSymbolTableRecord
100
AcDbRegAppTableRecord
  2
ACAD_DSTYLE_DIM_EXT2_LINETYPE
 70
     0
  0
APPID
  5
44
330
9
100
AcDbSymbolTableRecord
100
AcDbRegAppTableRecord
  2
ACAD_EXEMPT_FROM_CAD_STANDARDS
 70
     0
  0
APPID
  5
45
330
9
100
AcDbSymbolTableRecord
100
AcDbRegAppTableRecord
  2
AcadAnnoPO
 70
     0
  0
APPID
  5
46
330
9
100
AcDbSymbolTableRecord
100
AcDbRegAppTableRecord
  2
AcadAnnotative
 70
     0
  0
APPID
  5
47
330
9
100
AcDbSymbolTableRecord
100
AcDbRegAppTableRecord
  2
ACAD_DSTYLE_DIMJAG
 70
     0
  0
APPID
  5
48
330
9
100
AcDbSymbolTableRecord
100
AcDbRegAppTableRecord
  2
ACAD_DSTYLE_DIMTALN
 70
     0
  0
APPID
  5
49
330
9
100
AcDbSymbolTableRecord
100
AcDbRegAppTableRecord
  2
ACAD_MLEADERVER
 70
     0
  0
APPID
  5
4A
330
9
100
AcDbSymbolTableRecord
100
AcDbRegAppTableRecord
  2
ACAD_DSTYLE_DIMRADIAL_EXTENSION
 70
     0
  0
APPID
  5
4B
330
9
100
AcDbSymbolTableRecord
100
AcDbRegAppTableRecord
  2
ACAD_DSTYLE_DIMBREAK
 70
     0
  0
APPID
  5
4C
330
9
100
AcDbSymbolTableRecord
100
AcDbRegAppTableRecord
  2
ACAD_DSTYLE_DIMARC_LENGTH_SYMBOL
 70
     0
  0
APPID
  5
4D
330
9
100
AcDbSymbolTableRecord
100
AcDbRegAppTableRecord
  2
ACAD_DSTYLE_DIMJOGGED_JOGANGLE_SYMBOL
 70
     0
  0
APPID
  5
4E
330
9
100
AcDbSymbolTableRecord
100
AcDbRegAppTableRecord
  2
MCAD_NO_VIS
 70
     0
  0
APPID
  5
4F
330
9
100
AcDbSymbolTableRecord
100
AcDbRegAppTableRecord
  2
ACAD_TEMP_GRAPHIC
 70
     0
  0
APPID
  5
50
330
9
100
AcDbSymbolTableRecord
100
AcDbRegAppTableRecord
  2
AD_DRAW
 70
     0
  0
APPID
  5
51
330
9
100
AcDbSymbolTableRecord
100
AcDbRegAppTableRecord
  2
ACATTRIBSERVICES
 70
     0
  0
APPID
  5
52
330
9
100
AcDbSymbolTableRecord
100
AcDbRegAppTableRecord
  2
DESIGNERASSEMBLIES
 70
     0
  0
APPID
  5
53
330
9
100
AcDbSymbolTableRecord
100
AcDbRegAppTableRecord
  2
ACADM_DIM_EDIT
 70
     0
  0
APPID
  5
54
330
9
100
AcDbSymbolTableRecord
100
AcDbRegAppTableRecord
  2
AMDT_DM_ADJ
 70
     0
  0
APPID
  5
55
330
9
100
AcDbSymbolTableRecord
100
AcDbRegAppTableRecord
  2
GENIUS_GENODEF_13
 70
     0
  0
APPID
  5
56
330
9
100
AcDbSymbolTableRecord
100
AcDbRegAppTableRecord
  2
GENIUS_GENOBJ-N-FIL_13
 70
     0
  0
APPID
  5
57
330
9
100
AcDbSymbolTableRecord
100
AcDbRegAppTableRecord
  2
ACAD_DIMASSOC_CALC_DIMLFAC
 70
     0
  0
APPID
  5
58
330
9
100
AcDbSymbolTableRecord
100
AcDbRegAppTableRecord
  2
ACAD_DIMASSOC_DIMLFAC
 70
     0
  0
APPID
  5
59
330
9
100
AcDbSymbolTableRecord
100
AcDbRegAppTableRecord
  2
ACAD_DIMASSOC_OVERRIDDEN_DIMLFAC
 70
     0
  0
APPID
  5
4E5
330
9
100
AcDbSymbolTableRecord
100
AcDbRegAppTableRecord
  2
CAXA
 70
     0
  0
APPID
  5
1BF7
330
9
100
AcDbSymbolTableRecord
100
AcDbRegAppTableRecord
  2
AVE_RENDER
 70
     0
  0
APPID
  5
1BF8
330
9
100
AcDbSymbolTableRecord
100
AcDbRegAppTableRecord
  2
AVE_ENTITY_MATERIAL
 70
     0
  0
APPID
  5
1BF9
330
9
100
AcDbSymbolTableRecord
100
AcDbRegAppTableRecord
  2
AVE_FINISH
 70
     0
  0
APPID
  5
1BFA
330
9
100
AcDbSymbolTableRecord
100
AcDbRegAppTableRecord
  2
AVE_MATERIAL
 70
     0
  0
APPID
  5
1BFB
330
9
100
AcDbSymbolTableRecord
100
AcDbRegAppTableRecord
  2
AVE_GLOBAL
 70
     0
  0
APPID
  5
1BFC
330
9
100
AcDbSymbolTableRecord
100
AcDbRegAppTableRecord
  2
GENIUS_GENBLLY_14
 70
     0
  0
APPID
  5
1BFD
330
9
100
AcDbSymbolTableRecord
100
AcDbRegAppTableRecord
  2
ODA
 70
     0
  0
APPID
  5
1BFE
330
9
100
AcDbSymbolTableRecord
100
AcDbRegAppTableRecord
  2
RAK
 70
     0
  0
APPID
  5
1BFF
330
9
100
AcDbSymbolTableRecord
100
AcDbRegAppTableRecord
  2
AcDbDynamicBlockGUID
 70
     0
  0
APPID
  5
1C00
330
9
100
AcDbSymbolTableRecord
100
AcDbRegAppTableRecord
  2
AcDbBlockRepETag
 70
     0
  0
APPID
  5
1C01
330
9
100
AcDbSymbolTableRecord
100
AcDbRegAppTableRecord
  2
ACAUTHENVIRON
 70
     0
  0
APPID
  5
1C02
330
9
100
AcDbSymbolTableRecord
100
AcDbRegAppTableRecord
  2
AcDbDynamicBlockTrueName
 70
     0
  0
ENDTAB
  0
TABLE
  2
DIMSTYLE
  5
A
330
0
100
AcDbSymbolTable
 70
     7
100
AcDbDimStyleTable
 71
     1
340
25
  0
DIMSTYLE
105
25
330
A
100
AcDbSymbolTableRecord
100
AcDbDimStyleTableRecord
  2
Standard
 70
     0
340
11
  0
DIMSTYLE
105
60
330
A
100
AcDbSymbolTableRecord
100
AcDbDimStyleTableRecord
  2
副本 (3) ISO-25 4
 70
     0
 41
14.0
 42
0.0
 43
10.0
 44
6.0
 73
     0
 74
     0
 77
     1
 78
     8
140
20.0
141
7.5
143
0.03937007874016
147
1.5
171
     3
172
     1
271
     1
272
     1
274
     3
283
     0
284
     8
340
11
  0
DIMSTYLE
105
119
330
A
100
AcDbSymbolTableRecord
100
AcDbDimStyleTableRecord
  2
副本 ISO-25
 70
     0
 41
12.0
 42
0.0
 43
10.0
 44
5.0
 73
     0
 74
     0
 77
     1
 78
     8
140
18.0
141
1.5
143
0.03937007874016
147
1.5
171
     3
172
     1
271
     1
272
     1
274
     3
278
    44
283
     0
284
     8
340
11
  0
DIMSTYLE
105
359
330
A
100
AcDbSymbolTableRecord
100
AcDbDimStyleTableRecord
  2
ISO-25
 70
     0
 41
17.0
 42
3.0
 43
3.75
 44
1.25
 73
     0
 77
     1
 78
     8
140
19.0
141
80.0
143
0.03937007874016
147
7.0
170
     1
171
     3
172
     1
271
     2
272
     2
273
     7
274
     3
283
     0
284
     8
340
11
  0
DIMSTYLE
105
4EC
102
{ACAD_REACTORS
330
3D0F
330
3D10
330
3D59
330
3D5A
330
3D5B
330
3D5C
330
3D5D
330
3D5E
102
}
330
A
100
AcDbSymbolTableRecord
100
AcDbDimStyleTableRecord
  2
英寸
 70
     0
 41
12.0
 42
0.0
 43
10.0
 44
3.75
 73
     0
 74
     0
 77
     1
 78
     8
140
16.0
141
7.5
143
0.03937007874016
147
2.0
170
     1
171
     3
172
     1
179
     1
271
     1
272
     1
273
     7
274
     3
283
     0
284
     8
340
11
  0
ENDTAB
  0
TABLE
  2
BLOCK_RECORD
  5
1
330
0
100
AcDbSymbolTable
 70
    11
  0
BLOCK_RECORD
  5
1F
330
1
100
AcDbSymbolTableRecord
100
AcDbBlockTableRecord
  2
*Model_Space
340
22
 70
     0
280
     1
281
     0
  0
BLOCK_RECORD
  5
1B
330
1
100
AcDbSymbolTableRecord
100
AcDbBlockTableRecord
  2
*Paper_Space
340
1E
 70
     0
280
     1
281
     0
  0
BLOCK_RECORD
  5
23
330
1
100
AcDbSymbolTableRecord
100
AcDbBlockTableRecord
  2
*Paper_Space0
340
24
 70
     0
280
     1
281
     0
  0
BLOCK_RECORD
  5
3D11
330
1
100
AcDbSymbolTableRecord
100
AcDbBlockTableRecord
  2
*D1
340
0
 70
     0
280
     1
281
     0
  0
BLOCK_RECORD
  5
3D1F
330
1
100
AcDbSymbolTableRecord
100
AcDbBlockTableRecord
  2
*D2
340
0
 70
     0
280
     1
281
     0
  0
BLOCK_RECORD
  5
3D5F
330
1
100
AcDbSymbolTableRecord
100
AcDbBlockTableRecord
  2
*D3
340
0
 70
     0
280
     1
281
     0
  0
BLOCK_RECORD
  5
3D6B
330
1
100
AcDbSymbolTableRecord
100
AcDbBlockTableRecord
  2
*D4
340
0
 70
     0
280
     1
281
     0
  0
BLOCK_RECORD
  5
3D77
330
1
100
AcDbSymbolTableRecord
100
AcDbBlockTableRecord
  2
*D5
340
0
 70
     0
280
     1
281
     0
  0
BLOCK_RECORD
  5
3D83
330
1
100
AcDbSymbolTableRecord
100
AcDbBlockTableRecord
  2
*D6
340
0
 70
     0
280
     1
281
     0
  0
BLOCK_RECORD
  5
3D8F
330
1
100
AcDbSymbolTableRecord
100
AcDbBlockTableRecord
  2
*D7
340
0
 70
     0
280
     1
281
     0
  0
BLOCK_RECORD
  5
3D9B
330
1
100
AcDbSymbolTableRecord
100
AcDbBlockTableRecord
  2
*D8
340
0
 70
     0
280
     1
281
     0
  0
ENDTAB
  0
ENDSEC
  0
SECTION
  2
BLOCKS
  0
BLOCK
  5
20
330
1F
100
AcDbEntity
  8
0
100
AcDbBlockBegin
  2
*Model_Space
 70
     0
 10
0.0
 20
0.0
 30
0.0
  3
*Model_Space
  1

  0
ENDBLK
  5
21
330
1F
100
AcDbEntity
  8
0
100
AcDbBlockEnd
  0
BLOCK
  5
1C
330
1B
100
AcDbEntity
 67
     1
  8
0
100
AcDbBlockBegin
  2
*Paper_Space
 70
     0
 10
0.0
 20
0.0
 30
0.0
  3
*Paper_Space
  1

  0
ENDBLK
  5
1D
330
1B
100
AcDbEntity
 67
     1
  8
0
100
AcDbBlockEnd
  0
BLOCK
  5
39
330
23
100
AcDbEntity
 67
     1
  8
0
100
AcDbBlockBegin
  2
*Paper_Space0
 70
     0
 10
0.0
 20
0.0
 30
0.0
  3
*Paper_Space0
  1

  0
ENDBLK
  5
3A
330
23
100
AcDbEntity
 67
     1
  8
0
100
AcDbBlockEnd
  0
BLOCK
  5
3D1D
330
3D11
100
AcDbEntity
  8
0
100
AcDbBlockBegin
  2
*D1
 70
     1
 10
0.0
 20
0.0
 30
0.0
  3
*D1
  1

  0
LINE
  5
406D
330
3D11
100
AcDbEntity
  8
标注
 62
     0
370
    -2
100
AcDbLine
 10
967.8787068779966
 20
473.8613800361247
 30
0.0
 11
967.8787068779966
 21
433.9839531803228
 31
0.0
  0
LINE
  5
406E
330
3D11
100
AcDbEntity
  8
标注
 62
     0
370
    -2
100
AcDbLine
 10
974.2287068779987
 20
473.8613800361174
 30
0.0
 11
974.2287068779987
 21
433.9839531803228
 31
0.0
  0
LINE
  5
406F
330
3D11
100
AcDbEntity
  8
标注
 62
     0
370
    -2
100
AcDbLine
 10
982.2287068779987
 20
437.7339531803229
 30
0.0
 11
990.2287068779987
 21
437.7339531803229
 31
0.0
  0
LINE
  5
4070
330
3D11
100
AcDbEntity
  8
标注
 62
     0
370
    -2
100
AcDbLine
 10
959.8787068779968
 20
437.7339531803229
 30
0.0
 11
852.6372334809979
 21
437.7339531803229
 31
0.0
  0
LINE
  5
4071
330
3D11
100
AcDbEntity
  8
标注
 62
     0
370
    -2
100
AcDbLine
 10
974.2287068779987
 20
437.7339531803229
 30
0.0
 11
967.8787068779966
 21
437.7339531803229
 31
0.0
  0
SOLID
  5
4072
330
3D11
100
AcDbEntity
  8
标注
 62
     0
100
AcDbTrace
 10
982.2287068779987
 20
439.0672865136563
 30
0.0
 11
982.2287068779987
 21
436.4006198469895
 31
0.0
 12
974.2287068779987
 22
437.7339531803229
 32
0.0
 13
974.2287068779987
 23
437.7339531803229
 33
0.0
  0
SOLID
  5
4073
330
3D11
100
AcDbEntity
  8
标注
 62
     0
100
AcDbTrace
 10
959.8787068779968
 20
439.0672865136563
 30
0.0
 11
959.8787068779968
 21
436.4006198469895
 31
0.0
 12
967.8787068779966
 22
437.7339531803229
 32
0.0
 13
967.8787068779966
 23
437.7339531803229
 33
0.0
  0
MTEXT
  5
4074
330
3D11
100
AcDbEntity
  8
标注
 62
     0
100
AcDbMText
 10
893.8787068779967
 20
450.0913883781402
 30
0.0
 40
16.0
 41
0.0
 46
0.0
 71
     5
 72
     1
  1
{\fArial|b0|i0|c0|p34;6.4 [1/4]}
 73
     1
 44
1.0
  0
POINT
  5
4075
330
3D11
100
AcDbEntity
  8
Defpoints
 62
     0
100
AcDbPoint
 10
967.8787068779966
 20
473.8613800361247
 30
0.0
  0
POINT
  5
4076
330
3D11
100
AcDbEntity
  8
Defpoints
 62
     0
100
AcDbPoint
 10
974.2287068779987
 20
473.8613800361174
 30
0.0
  0
POINT
  5
4077
330
3D11
100
AcDbEntity
  8
Defpoints
 62
     0
100
AcDbPoint
 10
974.2287068779987
 20
437.7339531803229
 30
0.0
  0
ENDBLK
  5
3D1E
330
3D11
100
AcDbEntity
  8
0
100
AcDbBlockEnd
  0
BLOCK
  5
3D2B
330
3D1F
100
AcDbEntity
  8
0
100
AcDbBlockBegin
  2
*D2
 70
     1
 10
0.0
 20
0.0
 30
0.0
  3
*D2
  1

  0
LINE
  5
4078
330
3D1F
100
AcDbEntity
  8
标注
 62
     0
370
    -2
100
AcDbLine
 10
974.2287068779987
 20
473.8613800361174
 30
0.0
 11
974.2287068779987
 21
397.5846035499392
 31
0.0
  0
LINE
  5
4079
330
3D1F
100
AcDbEntity
  8
标注
 62
     0
370
    -2
100
AcDbLine
 10
980.5787068780009
 20
473.8613800361247
 30
0.0
 11
980.5787068780009
 21
397.5846035499392
 31
0.0
  0
LINE
  5
407A
330
3D1F
100
AcDbEntity
  8
标注
 62
     0
370
    -2
100
AcDbLine
 10
988.5787068780009
 20
401.3346035499392
 30
0.0
 11
996.5787068780009
 21
401.3346035499392
 31
0.0
  0
LINE
  5
407B
330
3D1F
100
AcDbEntity
  8
标注
 62
     0
370
    -2
100
AcDbLine
 10
966.2287068779987
 20
401.3346035499392
 30
0.0
 11
858.9872334810001
 21
401.3346035499392
 31
0.0
  0
LINE
  5
407C
330
3D1F
100
AcDbEntity
  8
标注
 62
     0
370
    -2
100
AcDbLine
 10
980.5787068780009
 20
401.3346035499392
 30
0.0
 11
974.2287068779987
 21
401.3346035499392
 31
0.0
  0
SOLID
  5
407D
330
3D1F
100
AcDbEntity
  8
标注
 62
     0
100
AcDbTrace
 10
988.5787068780009
 20
402.6679368832724
 30
0.0
 11
988.5787068780009
 21
400.0012702166059
 31
0.0
 12
980.5787068780009
 22
401.3346035499392
 32
0.0
 13
980.5787068780009
 23
401.3346035499392
 33
0.0
  0
SOLID
  5
407E
330
3D1F
100
AcDbEntity
  8
标注
 62
     0
100
AcDbTrace
 10
966.2287068779987
 20
402.6679368832724
 30
0.0
 11
966.2287068779987
 21
400.0012702166059
 31
0.0
 12
974.2287068779987
 22
401.3346035499392
 32
0.0
 13
974.2287068779987
 23
401.3346035499392
 33
0.0
  0
MTEXT
  5
407F
330
3D1F
100
AcDbEntity
  8
标注
 62
     0
100
AcDbMText
 10
900.2287068779988
 20
413.6920387477563
 30
0.0
 40
16.0
 41
0.0
 46
0.0
 71
     5
 72
     1
  1
{\fArial|b0|i0|c0|p34;6.4 [1/4]}
 73
     1
 44
1.0
  0
POINT
  5
4080
330
3D1F
100
AcDbEntity
  8
Defpoints
 62
     0
100
AcDbPoint
 10
974.2287068779987
 20
473.8613800361174
 30
0.0
  0
POINT
  5
4081
330
3D1F
100
AcDbEntity
  8
Defpoints
 62
     0
100
AcDbPoint
 10
980.5787068780009
 20
473.8613800361247
 30
0.0
  0
POINT
  5
4082
330
3D1F
100
AcDbEntity
  8
Defpoints
 62
     0
100
AcDbPoint
 10
980.5787068780009
 20
401.3346035499392
 30
0.0
  0
ENDBLK
  5
3D2C
330
3D1F
100
AcDbEntity
  8
0
100
AcDbBlockEnd
  0
BLOCK
  5
3D69
330
3D5F
100
AcDbEntity
  8
0
100
AcDbBlockBegin
  2
*D3
 70
     1
 10
0.0
 20
0.0
 30
0.0
  3
*D3
  1

  0
LINE
  5
4083
330
3D5F
100
AcDbEntity
  8
标注
 62
     0
370
    -2
100
AcDbLine
 10
974.2287068779987
 20
669.0
 30
0.0
 11
974.2287068779987
 21
746.4725673309668
 31
0.0
  0
LINE
  5
4084
330
3D5F
100
AcDbEntity
  8
标注
 62
     0
370
    -2
100
AcDbLine
 10
440.2287068779959
 20
678.0
 30
0.0
 11
440.2287068779959
 21
746.4725673309668
 31
0.0
  0
LINE
  5
4085
330
3D5F
100
AcDbEntity
  8
标注
 62
     0
370
    -2
100
AcDbLine
 10
966.2287068779987
 20
742.7225673309668
 30
0.0
 11
448.2287068779959
 21
742.7225673309668
 31
0.0
  0
SOLID
  5
4086
330
3D5F
100
AcDbEntity
  8
标注
 62
     0
100
AcDbTrace
 10
966.2287068779987
 20
744.0559006643001
 30
0.0
 11
966.2287068779987
 21
741.3892339976333
 31
0.0
 12
974.2287068779987
 22
742.7225673309668
 32
0.0
 13
974.2287068779987
 23
742.7225673309668
 33
0.0
  0
SOLID
  5
4087
330
3D5F
100
AcDbEntity
  8
标注
 62
     0
100
AcDbTrace
 10
448.2287068779959
 20
744.0559006643001
 30
0.0
 11
448.2287068779959
 21
741.3892339976333
 31
0.0
 12
440.2287068779959
 22
742.7225673309668
 32
0.0
 13
440.2287068779959
 23
742.7225673309668
 33
0.0
  0
MTEXT
  5
4088
330
3D5F
100
AcDbEntity
  8
标注
 62
     0
100
AcDbMText
 10
707.4951944000786
 20
754.9763190362873
 30
0.0
 40
16.0
 41
0.0
 46
0.0
 71
     5
 72
     1
  1
{\fArial|b0|i0|c0|p34;534 [21]}
 73
     1
 44
1.0
  0
POINT
  5
4089
330
3D5F
100
AcDbEntity
  8
Defpoints
 62
     0
100
AcDbPoint
 10
974.2287068779987
 20
669.0
 30
0.0
  0
POINT
  5
408A
330
3D5F
100
AcDbEntity
  8
Defpoints
 62
     0
100
AcDbPoint
 10
440.2287068779959
 20
678.0
 30
0.0
  0
POINT
  5
408B
330
3D5F
100
AcDbEntity
  8
Defpoints
 62
     0
100
AcDbPoint
 10
440.2287068779959
 20
742.7225673309668
 30
0.0
  0
ENDBLK
  5
3D6A
330
3D5F
100
AcDbEntity
  8
0
100
AcDbBlockEnd
  0
BLOCK
  5
3D75
330
3D6B
100
AcDbEntity
  8
0
100
AcDbBlockBegin
  2
*D4
 70
     1
 10
0.0
 20
0.0
 30
0.0
  3
*D4
  1

  0
LINE
  5
408C
330
3D6B
100
AcDbEntity
  8
标注
 62
     0
370
    -2
100
AcDbLine
 10
420.0
 20
673.8613800362948
 30
0.0
 11
353.7500000000002
 21
673.8613800362948
 31
0.0
  0
LINE
  5
408D
330
3D6B
100
AcDbEntity
  8
标注
 62
     0
370
    -2
100
AcDbLine
 10
425.0
 20
273.8613800362946
 30
0.0
 11
353.75
 21
273.8613800362946
 31
0.0
  0
LINE
  5
408E
330
3D6B
100
AcDbEntity
  8
标注
 62
     0
370
    -2
100
AcDbLine
 10
357.5000000000002
 20
665.8613800362948
 30
0.0
 11
357.5
 21
281.8613800362946
 31
0.0
  0
SOLID
  5
408F
330
3D6B
100
AcDbEntity
  8
标注
 62
     0
100
AcDbTrace
 10
356.1666666666668
 20
665.8613800362948
 30
0.0
 11
358.8333333333334
 21
665.8613800362948
 31
0.0
 12
357.5000000000002
 22
673.8613800362948
 32
0.0
 13
357.5000000000002
 23
673.8613800362948
 33
0.0
  0
SOLID
  5
4090
330
3D6B
100
AcDbEntity
  8
标注
 62
     0
100
AcDbTrace
 10
356.1666666666667
 20
281.8613800362946
 30
0.0
 11
358.8333333333332
 21
281.8613800362946
 31
0.0
 12
357.5
 22
273.8613800362946
 32
0.0
 13
357.5
 23
273.8613800362946
 33
0.0
  0
MTEXT
  5
4091
330
3D6B
100
AcDbEntity
  8
标注
 62
     0
100
AcDbMText
 10
345.1425648021829
 20
501.8500000000008
 30
0.0
 40
16.0
 41
0.0
 46
0.0
 71
     5
 72
     1
  1
{\fArial|b0|i0|c0|p34;400 [15 3/4]}
 11
0.0000000000000001
 21
1.0
 31
0.0
 73
     1
 44
1.0
  0
POINT
  5
4092
330
3D6B
100
AcDbEntity
  8
Defpoints
 62
     0
100
AcDbPoint
 10
420.0
 20
673.8613800362948
 30
0.0
  0
POINT
  5
4093
330
3D6B
100
AcDbEntity
  8
Defpoints
 62
     0
100
AcDbPoint
 10
425.0
 20
273.8613800362946
 30
0.0
  0
POINT
  5
4094
330
3D6B
100
AcDbEntity
  8
Defpoints
 62
     0
100
AcDbPoint
 10
357.5
 20
273.8613800362946
 30
0.0
  0
ENDBLK
  5
3D76
330
3D6B
100
AcDbEntity
  8
0
100
AcDbBlockEnd
  0
BLOCK
  5
3D81
330
3D77
100
AcDbEntity
  8
0
100
AcDbBlockBegin
  2
*D5
 70
     1
 10
0.0
 20
0.0
 30
0.0
  3
*D5
  1

  0
LINE
  5
4095
330
3D77
100
AcDbEntity
  8
标注
 62
     0
370
    -2
100
AcDbLine
 10
980.5787068780009
 20
670.0
 30
0.0
 11
980.5787068780009
 21
779.9725673309668
 31
0.0
  0
LINE
  5
4096
330
3D77
100
AcDbEntity
  8
标注
 62
     0
370
    -2
100
AcDbLine
 10
433.8787068779983
 20
678.0
 30
0.0
 11
433.8787068779983
 21
779.9725673309668
 31
0.0
  0
LINE
  5
4097
330
3D77
100
AcDbEntity
  8
标注
 62
     0
370
    -2
100
AcDbLine
 10
972.5787068780009
 20
776.2225673309668
 30
0.0
 11
441.8787068779983
 21
776.2225673309668
 31
0.0
  0
SOLID
  5
4098
330
3D77
100
AcDbEntity
  8
标注
 62
     0
100
AcDbTrace
 10
972.5787068780009
 20
777.5559006643001
 30
0.0
 11
972.5787068780009
 21
774.8892339976333
 31
0.0
 12
980.5787068780009
 22
776.2225673309668
 32
0.0
 13
980.5787068780009
 23
776.2225673309668
 33
0.0
  0
SOLID
  5
4099
330
3D77
100
AcDbEntity
  8
标注
 62
     0
100
AcDbTrace
 10
441.8787068779983
 20
777.5559006643001
 30
0.0
 11
441.8787068779983
 21
774.8892339976333
 31
0.0
 12
433.8787068779983
 22
776.2225673309668
 32
0.0
 13
433.8787068779983
 23
776.2225673309668
 33
0.0
  0
MTEXT
  5
409A
330
3D77
100
AcDbEntity
  8
标注
 62
     0
100
AcDbMText
 10
707.4953762927435
 20
788.5800025287839
 30
0.0
 40
16.0
 41
0.0
 46
0.0
 71
     5
 72
     1
  1
{\fArial|b0|i0|c0|p34;546.7 [21 1/2]}
 73
     1
 44
1.0
  0
POINT
  5
409B
330
3D77
100
AcDbEntity
  8
Defpoints
 62
     0
100
AcDbPoint
 10
980.5787068780009
 20
670.0
 30
0.0
  0
POINT
  5
409C
330
3D77
100
AcDbEntity
  8
Defpoints
 62
     0
100
AcDbPoint
 10
433.8787068779983
 20
678.0
 30
0.0
  0
POINT
  5
409D
330
3D77
100
AcDbEntity
  8
Defpoints
 62
     0
100
AcDbPoint
 10
433.8787068779983
 20
776.2225673309668
 30
0.0
  0
ENDBLK
  5
3D82
330
3D77
100
AcDbEntity
  8
0
100
AcDbBlockEnd
  0
BLOCK
  5
3D8D
330
3D83
100
AcDbEntity
  8
0
100
AcDbBlockBegin
  2
*D6
 70
     1
 10
0.0
 20
0.0
 30
0.0
  3
*D6
  1

  0
LINE
  5
409E
330
3D83
100
AcDbEntity
  8
标注
 62
     0
370
    -2
100
AcDbLine
 10
421.0
 20
680.2113800362961
 30
0.0
 11
322.7500000000001
 21
680.2113800362961
 31
0.0
  0
LINE
  5
409F
330
3D83
100
AcDbEntity
  8
标注
 62
     0
370
    -2
100
AcDbLine
 10
426.4999999999999
 20
267.5113800362942
 30
0.0
 11
322.75
 21
267.5113800362943
 31
0.0
  0
LINE
  5
40A0
330
3D83
100
AcDbEntity
  8
标注
 62
     0
370
    -2
100
AcDbLine
 10
326.5000000000001
 20
672.2113800362961
 30
0.0
 11
326.5
 21
275.5113800362943
 31
0.0
  0
SOLID
  5
40A1
330
3D83
100
AcDbEntity
  8
标注
 62
     0
100
AcDbTrace
 10
325.1666666666668
 20
672.2113800362961
 30
0.0
 11
327.8333333333334
 21
672.2113800362961
 31
0.0
 12
326.5000000000001
 22
680.2113800362961
 32
0.0
 13
326.5000000000001
 23
680.2113800362961
 33
0.0
  0
SOLID
  5
40A2
330
3D83
100
AcDbEntity
  8
标注
 62
     0
100
AcDbTrace
 10
325.1666666666667
 20
275.5113800362943
 30
0.0
 11
327.8333333333333
 21
275.5113800362943
 31
0.0
 12
326.5
 22
267.5113800362943
 32
0.0
 13
326.5
 23
267.5113800362943
 33
0.0
  0
MTEXT
  5
40A3
330
3D83
100
AcDbEntity
  8
标注
 62
     0
100
AcDbMText
 10
314.1425648021828
 20
501.8500000000019
 30
0.0
 40
16.0
 41
0.0
 46
0.0
 71
     5
 72
     1
  1
{\fArial|b0|i0|c0|p34;412.7 [16 1/4]}
 11
0.0000000000000001
 21
1.0
 31
0.0
 73
     1
 44
1.0
  0
POINT
  5
40A4
330
3D83
100
AcDbEntity
  8
Defpoints
 62
     0
100
AcDbPoint
 10
421.0
 20
680.2113800362961
 30
0.0
  0
POINT
  5
40A5
330
3D83
100
AcDbEntity
  8
Defpoints
 62
     0
100
AcDbPoint
 10
426.4999999999999
 20
267.5113800362942
 30
0.0
  0
POINT
  5
40A6
330
3D83
100
AcDbEntity
  8
Defpoints
 62
     0
100
AcDbPoint
 10
326.5
 20
267.5113800362943
 30
0.0
  0
ENDBLK
  5
3D8E
330
3D83
100
AcDbEntity
  8
0
100
AcDbBlockEnd
  0
BLOCK
  5
3D99
330
3D8F
100
AcDbEntity
  8
0
100
AcDbBlockBegin
  2
*D7
 70
     1
 10
0.0
 20
0.0
 30
0.0
  3
*D7
  1

  0
LINE
  5
40A7
330
3D8F
100
AcDbEntity
  8
标注
 62
     0
370
    -2
100
AcDbLine
 10
967.8787068779966
 20
667.4999999999999
 30
0.0
 11
967.8787068779966
 21
715.4725673309668
 31
0.0
  0
LINE
  5
40A8
330
3D8F
100
AcDbEntity
  8
标注
 62
     0
370
    -2
100
AcDbLine
 10
446.5787068779991
 20
677.5
 30
0.0
 11
446.5787068779991
 21
715.4725673309668
 31
0.0
  0
LINE
  5
40A9
330
3D8F
100
AcDbEntity
  8
标注
 62
     0
370
    -2
100
AcDbLine
 10
959.8787068779968
 20
711.7225673309668
 30
0.0
 11
454.5787068779991
 21
711.7225673309668
 31
0.0
  0
SOLID
  5
40AA
330
3D8F
100
AcDbEntity
  8
标注
 62
     0
100
AcDbTrace
 10
959.8787068779968
 20
713.0559006643001
 30
0.0
 11
959.8787068779968
 21
710.3892339976333
 31
0.0
 12
967.8787068779966
 22
711.7225673309668
 32
0.0
 13
967.8787068779966
 23
711.7225673309668
 33
0.0
  0
SOLID
  5
40AB
330
3D8F
100
AcDbEntity
  8
标注
 62
     0
100
AcDbTrace
 10
454.5787068779991
 20
713.0559006643001
 30
0.0
 11
454.5787068779991
 21
710.3892339976333
 31
0.0
 12
446.5787068779991
 22
711.7225673309668
 32
0.0
 13
446.5787068779991
 23
711.7225673309668
 33
0.0
  0
MTEXT
  5
40AC
330
3D8F
100
AcDbEntity
  8
标注
 62
     0
100
AcDbMText
 10
707.4950124435437
 20
724.0800025287839
 30
0.0
 40
16.0
 41
0.0
 46
0.0
 71
     5
 72
     1
  1
{\fArial|b0|i0|c0|p34;521.3 [20 1/2]}
 73
     1
 44
1.0
  0
POINT
  5
40AD
330
3D8F
100
AcDbEntity
  8
Defpoints
 62
     0
100
AcDbPoint
 10
967.8787068779966
 20
667.4999999999999
 30
0.0
  0
POINT
  5
40AE
330
3D8F
100
AcDbEntity
  8
Defpoints
 62
     0
100
AcDbPoint
 10
446.5787068779991
 20
677.5
 30
0.0
  0
POINT
  5
40AF
330
3D8F
100
AcDbEntity
  8
Defpoints
 62
     0
100
AcDbPoint
 10
446.5787068779991
 20
711.7225673309668
 30
0.0
  0
ENDBLK
  5
3D9A
330
3D8F
100
AcDbEntity
  8
0
100
AcDbBlockEnd
  0
BLOCK
  5
3DA5
330
3D9B
100
AcDbEntity
  8
0
100
AcDbBlockBegin
  2
*D8
 70
     1
 10
0.0
 20
0.0
 30
0.0
  3
*D8
  1

  0
LINE
  5
40B0
330
3D9B
100
AcDbEntity
  8
标注
 62
     0
370
    -2
100
AcDbLine
 10
420.5
 20
667.5113800362942
 30
0.0
 11
381.7500000000002
 21
667.5113800362942
 31
0.0
  0
LINE
  5
40B1
330
3D9B
100
AcDbEntity
  8
标注
 62
     0
370
    -2
100
AcDbLine
 10
425.0
 20
280.2113800362949
 30
0.0
 11
381.75
 21
280.211380036295
 31
0.0
  0
LINE
  5
40B2
330
3D9B
100
AcDbEntity
  8
标注
 62
     0
370
    -2
100
AcDbLine
 10
385.5000000000002
 20
659.5113800362942
 30
0.0
 11
385.5
 21
288.2113800362949
 31
0.0
  0
SOLID
  5
40B3
330
3D9B
100
AcDbEntity
  8
标注
 62
     0
100
AcDbTrace
 10
384.1666666666668
 20
659.5113800362942
 30
0.0
 11
386.8333333333334
 21
659.5113800362942
 31
0.0
 12
385.5000000000002
 22
667.5113800362942
 32
0.0
 13
385.5000000000002
 23
667.5113800362942
 33
0.0
  0
SOLID
  5
40B4
330
3D9B
100
AcDbEntity
  8
标注
 62
     0
100
AcDbTrace
 10
384.1666666666668
 20
288.2113800362949
 30
0.0
 11
386.8333333333333
 21
288.2113800362949
 31
0.0
 12
385.5
 22
280.2113800362949
 32
0.0
 13
385.5
 23
280.2113800362949
 33
0.0
  0
MTEXT
  5
40B5
330
3D9B
100
AcDbEntity
  8
标注
 62
     0
100
AcDbMText
 10
373.1425648021828
 20
502.0300000000003
 30
0.0
 40
16.0
 41
0.0
 46
0.0
 71
     5
 72
     1
  1
{\fArial|b0|i0|c0|p34;387.3 [15 1/4]}
 11
0.0000000000000001
 21
1.0
 31
0.0
 73
     1
 44
1.0
  0
POINT
  5
40B6
330
3D9B
100
AcDbEntity
  8
Defpoints
 62
     0
100
AcDbPoint
 10
420.5
 20
667.5113800362942
 30
0.0
  0
POINT
  5
40B7
330
3D9B
100
AcDbEntity
  8
Defpoints
 62
     0
100
AcDbPoint
 10
425.0
 20
280.2113800362949
 30
0.0
  0
POINT
  5
40B8
330
3D9B
100
AcDbEntity
  8
Defpoints
 62
     0
100
AcDbPoint
 10
385.5
 20
280.2113800362949
 30
0.0
  0
ENDBLK
  5
3DA6
330
3D9B
100
AcDbEntity
  8
0
100
AcDbBlockEnd
  0
ENDSEC
  0
SECTION
  2
ENTITIES
  0
LWPOLYLINE
  5
3BAA
330
1F
100
AcDbEntity
  8
虚线
 48
2.0
100
AcDbPolyline
 90
        8
 70
     1
 43
0.0
 10
440.7616819221585
 20
374.2970703717002
 42
0.4058026227141708
 10
538.9464645308542
 20
275.3840268934364
 42
0.0090481730924444
 10
875.5109492251431
 20
275.3840268934364
 42
0.4058026227141768
 10
973.6957318338394
 20
374.2970703717002
 42
0.0053530732644652
 10
973.6957318338394
 20
573.4256897008889
 42
0.4058026227141661
 10
875.5109492251431
 20
672.3387331791528
 42
0.0090481730924445
 10
538.9464645308542
 20
672.3387331791528
 42
0.4058026227141556
 10
440.7616819221585
 20
573.4256897008962
 42
0.0053530732644655
  0
LWPOLYLINE
  5
3BAB
330
1F
100
AcDbEntity
  8
虚线
 48
2.0
100
AcDbPolyline
 90
        8
 70
     1
 43
0.0
 10
447.1113180090906
 20
374.3650524541044
 42
0.4058026783288433
 10
539.061384806806
 20
281.7329869130372
 42
0.009048172611227
 10
875.3960468338627
 20
281.7329872367118
 42
0.405802672486775
 10
967.3460959182918
 20
374.3650684617751
 42
0.0053530728338204
 10
967.3460957469067
 20
573.3577076184811
 42
0.4058026573151854
 10
875.396035706799
 20
665.9897730372541
 42
0.009048172793052
 10
539.0613669221347
 20
665.9897728358774
 42
0.4058026227141556
 10
447.1113180090906
 20
573.357707618492
 42
0.0053530732644655
  0
LWPOLYLINE
  5
3BAC
330
1F
100
AcDbEntity
  8
粗实线
100
AcDbPolyline
 90
        8
 70
     1
 43
0.0
 10
434.4120458352263
 20
374.2290882892921
 42
0.4058026621918751
 10
538.8315765565168
 20
269.0350662892452
 42
0.0090481727050615
 10
875.6258516164235
 20
269.035066550161
 42
0.4058026227141768
 10
980.0453679207747
 20
374.2290882892958
 42
0.0053530732644652
 10
980.0453679207711
 20
573.4936717832933
 42
0.4058026227141661
 10
875.6258516164235
 20
678.6876935224283
 42
0.0090481730924445
 10
538.831562139574
 20
678.6876935224283
 42
0.4058026553814936
 10
434.4120457074859
 20
573.493659852178
 42
0.0053530729439277
  0
HATCH
  5
3BAF
330
1F
100
AcDbEntity
  8
剖切线
100
AcDbHatch
 10
0.0
 20
0.0
 30
0.0
210
0.0
220
0.0
230
1.0
  2
ANSI37
 70
     0
 71
     0
 91
        2
 92
        7
 72
     0
 73
     1
 93
        6
 10
836.8146066226616
 20
575.9996667867853
 10
835.084878622656
 20
575.9996667867853
 10
835.084878622656
 20
557.725139485843
 10
833.754318622654
 20
557.725139485843
 10
833.754318622654
 20
556.3945794858409
 10
836.8146066226616
 20
556.3945794858409
 97
        0
 92
        7
 72
     0
 73
     1
 93
        6
 10
847.0599186226536
 20
575.9996667867853
 10
845.3301906226624
 20
575.9996667867853
 10
845.3301906226624
 20
556.3945794858409
 10
848.3904786226558
 20
556.3945794858409
 10
848.3904786226558
 20
557.725139485843
 10
847.0599186226536
 20
557.725139485843
 97
        0
 75
     0
 76
     1
 52
0.0
 41
0.2661120000000001
 77
     0
 78
     2
 53
45.0
 43
2503.370870370829
 44
-3009.610227858699
 45
-0.5974384792217098
 46
0.5974384792245111
 79
     0
 53
135.0
 43
2503.370870370829
 44
-3009.610227858699
 45
-0.5974384792217098
 46
-0.5974384792245111
 79
     0
 47
0.0875911827022285
 98
        2
 10
836.2816527559918
 20
569.6883183544522
 10
846.1954862775748
 20
570.5041351301952
  0
HATCH
  5
3BB0
330
1F
100
AcDbEntity
  8
剖切线
100
AcDbHatch
 10
0.0
 20
0.0
 30
0.0
210
0.0
220
0.0
230
1.0
  2
ANSI31
 70
     0
 71
     1
 91
        1
 92
        5
 93
        8
 72
     1
 10
835.084878622656
 20
557.7251394858321
 11
835.084878622656
 21
575.9996667867635
 72
     1
 10
835.084878622656
 20
575.9996667867635
 11
847.0599186226573
 21
575.9996667867635
 72
     1
 10
847.0599186226573
 20
575.9996667867635
 11
847.0599186226573
 21
557.7251394858321
 72
     1
 10
847.0599186226573
 20
557.7251394858321
 11
880.7816603814316
 21
557.7251394858321
 72
     1
 10
880.7816603814316
 20
557.7251394858321
 11
880.7816603814316
 21
590.9891394858277
 72
     1
 10
880.7816603814316
 20
590.9891394858277
 11
783.2143714017619
 21
590.9891394858277
 72
     4
 94
        3
 73
     0
 74
     0
 95
       11
 96
        7
 40
0.0
 40
0.0
 40
0.0
 40
0.0
 40
9.772388244965537
 40
19.74420542844685
 40
28.87401972480266
 40
35.16651116270554
 40
35.16651116270554
 40
35.16651116270554
 40
35.16651116270554
 10
783.2143714017619
 20
590.9891394858277
 10
785.1670656159472
 20
587.9739607223004
 10
789.1123034367702
 20
581.8820712661842
 10
781.4716327496068
 20
572.7645612603831
 10
787.4392419399111
 20
564.222401739122
 10
784.4386500112636
 20
559.6079094133841
 10
783.2143714017619
 20
557.7251394858321
 72
     1
 10
783.2143714017619
 20
557.7251394858321
 11
835.084878622656
 21
557.7251394858321
 97
        8
330
3BCC
330
3BC2
330
3BB3
330
3BB6
330
3BB5
330
3BE2
330
3BB1
330
3BCE
 75
     0
 76
     1
 52
0.0
 41
1.1088
 77
     0
 78
     1
 53
44.9999999999263
 43
-10310.42960864796
 44
25382.65381307262
 45
-2.489326996760392
 46
2.48932699675759
 79
     0
 47
0.5147252568016311
 98
        1
 10
805.0589508274498
 20
567.8807600797007
  0
LINE
  5
3BB1
102
{ACAD_REACTORS
330
3BB0
102
}
330
1F
100
AcDbEntity
  8
粗实线
100
AcDbLine
 10
783.2143714017619
 20
557.7251394858321
 30
0.0
 11
835.084878622656
 21
557.7251394858321
 31
0.0
  0
HATCH
  5
3BB2
330
1F
100
AcDbEntity
  8
剖切线
100
AcDbHatch
 10
0.0
 20
0.0
 30
0.0
210
0.0
220
0.0
230
1.0
  2
ANSI31
 70
     0
 71
     0
 91
        1
 92
        7
 72
     1
 73
     1
 93
        9
 10
867.2522099676571
 20
557.7251394858321
 42
0.0
 10
865.3053156715213
 20
557.7251394858321
 42
0.0
 10
865.3053156715248
 20
556.4952954858345
 42
0.0
 10
884.4739847599775
 20
556.4931394858322
 42
-0.4014906669060267
 10
887.0894930040778
 20
553.9893350419552
 42
0.0
 10
888.8299930352841
 20
514.1747579528201
 42
0.0
 10
890.0522105391356
 20
514.3762687239395
 42
0.0
 10
888.3203204130696
 20
554.0430741271921
 42
0.4014906669060267
 10
884.4739847599775
 20
557.7251394858321
 42
0.0
 97
        0
 75
     0
 76
     1
 52
90.0
 41
0.7700000000000001
 77
     0
 78
     1
 53
135.0000000001474
 43
-15463.2018446976
 44
26281.56207082347
 45
-1.728699303305439
 46
-1.728699303308239
 79
     0
 47
0.1745883849316779
 98
        1
 10
878.0920448420184
 20
557.4153388140875
  0
LINE
  5
3BB3
102
{ACAD_REACTORS
330
3BB0
102
}
330
1F
100
AcDbEntity
  8
粗实线
100
AcDbLine
 10
847.0599186226573
 20
557.7251394858321
 30
0.0
 11
880.7816603814316
 21
557.7251394858321
 31
0.0
  0
LINE
  5
3BB4
330
1F
100
AcDbEntity
  8
粗实线
100
AcDbLine
 10
845.3301906226624
 20
556.39457948583
 30
0.0
 11
848.3904786226558
 21
556.39457948583
 31
0.0
  0
LINE
  5
3BB5
102
{ACAD_REACTORS
330
3BB0
102
}
330
1F
100
AcDbEntity
  8
粗实线
100
AcDbLine
 10
783.2143714017619
 20
590.9891394858277
 30
0.0
 11
880.7816603814316
 21
590.9891394858277
 31
0.0
  0
LINE
  5
3BB6
102
{ACAD_REACTORS
330
3BB0
102
}
330
1F
100
AcDbEntity
  8
粗实线
100
AcDbLine
 10
880.7816603814316
 20
590.9891394858277
 30
0.0
 11
880.7816603814316
 21
557.7251394858321
 31
0.0
  0
HATCH
  5
3BB7
330
1F
100
AcDbEntity
  8
剖切线
100
AcDbHatch
 10
0.0
 20
0.0
 30
0.0
210
0.0
220
0.0
230
1.0
  2
ANSI31
 70
     0
 71
     0
 91
        2
 92
        7
 72
     0
 73
     1
 93
        6
 10
833.7210546226597
 20
546.3120495036491
 10
833.7210546226561
 20
540.9898095036623
 10
835.4175186226566
 20
540.9898095036623
 10
835.4175186226566
 20
542.5864815036657
 10
841.0723986226585
 20
542.5864815036657
 10
841.0723986226585
 20
546.3120495036491
 97
        0
 92
        7
 72
     0
 73
     1
 93
        6
 10
841.0723986226585
 20
546.3120495036491
 10
841.0723986226585
 20
542.5864815036657
 10
846.7272786226532
 20
542.5864815036657
 10
846.7272786226532
 20
540.9898095036623
 10
848.4237426226538
 20
540.9898095036623
 10
848.4237426226538
 20
546.3120495036491
 97
        0
 75
     0
 76
     1
 52
90.0
 41
0.6652800000000002
 77
     0
 78
     1
 53
135.0
 43
4081.58915166869
 44
2816.123986892773
 45
-1.493596198055675
 46
-1.493596198055675
 79
     0
 47
0.1137768334985027
 98
        2
 10
835.9846984256874
 20
546.099687445323
 10
843.402657688599
 20
545.3421827272977
  0
LINE
  5
3BB8
330
1F
100
AcDbEntity
  8
粗实线
 48
0.1
100
AcDbLine
 10
848.4237426226538
 20
540.9898095036405
 30
0.0
 11
833.7210546226561
 21
540.9898095036405
 31
0.0
  0
LINE
  5
3BB9
330
1F
100
AcDbEntity
  8
粗实线
 48
0.1
100
AcDbLine
 10
846.7272786226567
 20
542.5864815036439
 30
0.0
 11
835.4175186226566
 21
542.5864815036439
 31
0.0
  0
LINE
  5
3BBA
330
1F
100
AcDbEntity
  8
粗实线
 48
0.1
100
AcDbLine
 10
848.4237426226538
 20
546.3120495036491
 30
0.0
 11
833.7210546226561
 21
546.3120495036491
 31
0.0
  0
LINE
  5
3BBB
330
1F
100
AcDbEntity
  8
粗实线
 48
0.1
100
AcDbLine
 10
844.3987986226602
 20
575.5843695036419
 30
0.0
 11
837.7459986226533
 21
575.5843695036419
 31
0.0
  0
LINE
  5
3BBC
330
1F
100
AcDbEntity
  8
粗实线
 48
0.1
100
AcDbLine
 10
845.0640786226539
 20
574.9190895036518
 30
0.0
 11
837.0807186226594
 21
574.9190895036518
 31
0.0
  0
LINE
  5
3BBD
330
1F
100
AcDbEntity
  8
中心线
 48
0.1
100
AcDbLine
 10
841.0723986226548
 20
577.8913143279896
 30
0.0
 11
841.0723986226548
 21
537.9370641999957
 31
0.0
  0
LINE
  5
3BBE
330
1F
100
AcDbEntity
  8
粗实线
 48
0.1
100
AcDbLine
 10
837.0807186226594
 20
574.9190895036518
 30
0.0
 11
837.0807186226594
 21
546.3120495036491
 31
0.0
  0
LINE
  5
3BBF
330
1F
100
AcDbEntity
  8
细实线
 48
0.1
100
AcDbLine
 10
837.7459986226533
 20
575.5843695036419
 30
0.0
 11
837.7459986226533
 21
546.3120495036491
 31
0.0
  0
LINE
  5
3BC0
330
1F
100
AcDbEntity
  8
粗实线
 48
0.1
100
AcDbLine
 10
845.0640786226539
 20
574.9190895036518
 30
0.0
 11
845.0640786226539
 21
546.3120495036491
 31
0.0
  0
LINE
  5
3BC1
330
1F
100
AcDbEntity
  8
粗实线
 48
0.1
100
AcDbLine
 10
845.3301906226624
 20
575.9996667867635
 30
0.0
 11
845.3301906226624
 21
556.39457948583
 31
0.0
  0
LINE
  5
3BC2
102
{ACAD_REACTORS
330
3BB0
102
}
330
1F
100
AcDbEntity
  8
粗实线
 48
0.1
100
AcDbLine
 10
847.0599186226573
 20
575.9996667867635
 30
0.0
 11
847.0599186226573
 21
557.7251394858321
 31
0.0
  0
LINE
  5
3BC3
330
1F
100
AcDbEntity
  8
粗实线
 48
0.1
100
AcDbLine
 10
848.3904786226558
 20
557.7251394858321
 30
0.0
 11
848.3904786226558
 21
556.39457948583
 31
0.0
  0
LINE
  5
3BC4
330
1F
100
AcDbEntity
  8
细实线
 48
0.1
100
AcDbLine
 10
844.3987986226602
 20
575.5843695036419
 30
0.0
 11
844.3987986226602
 21
546.3120495036491
 31
0.0
  0
LINE
  5
3BC5
330
1F
100
AcDbEntity
  8
粗实线
 48
0.1
100
AcDbLine
 10
835.4175186226566
 20
542.5864815036439
 30
0.0
 11
835.4175186226566
 21
540.9898095036405
 31
0.0
  0
LINE
  5
3BC6
330
1F
100
AcDbEntity
  8
粗实线
 48
0.1
100
AcDbLine
 10
846.7272786226567
 20
542.5864815036439
 30
0.0
 11
846.7272786226567
 21
540.9898095036405
 31
0.0
  0
LINE
  5
3BC7
330
1F
100
AcDbEntity
  8
粗实线
 48
0.1
100
AcDbLine
 10
833.7210546226561
 20
546.3120495036491
 30
0.0
 11
833.7210546226561
 21
540.9898095036405
 31
0.0
  0
LINE
  5
3BC8
330
1F
100
AcDbEntity
  8
粗实线
 48
0.1
100
AcDbLine
 10
848.4237426226538
 20
546.3120495036491
 30
0.0
 11
848.4237426226538
 21
540.9898095036405
 31
0.0
  0
LINE
  5
3BC9
330
1F
100
AcDbEntity
  8
粗实线
 48
0.1
100
AcDbLine
 10
837.7459986226533
 20
575.5843695036419
 30
0.0
 11
837.0807186226594
 21
574.9190895036518
 31
0.0
  0
LINE
  5
3BCA
330
1F
100
AcDbEntity
  8
粗实线
 48
0.1
100
AcDbLine
 10
844.3987986226602
 20
575.5843695036419
 30
0.0
 11
845.0640786226539
 21
574.9190895036518
 31
0.0
  0
LINE
  5
3BCB
330
1F
100
AcDbEntity
  8
粗实线
100
AcDbLine
 10
836.8146066226616
 20
556.39457948583
 30
0.0
 11
833.754318622654
 21
556.39457948583
 31
0.0
  0
LINE
  5
3BCC
102
{ACAD_REACTORS
330
3BB0
102
}
330
1F
100
AcDbEntity
  8
粗实线
 48
0.1
100
AcDbLine
 10
835.084878622656
 20
575.9996667867635
 30
0.0
 11
847.0599186226573
 21
575.9996667867635
 31
0.0
  0
LINE
  5
3BCD
330
1F
100
AcDbEntity
  8
粗实线
 48
0.1
100
AcDbLine
 10
836.8146066226616
 20
575.9996667867635
 30
0.0
 11
836.8146066226616
 21
556.39457948583
 31
0.0
  0
LINE
  5
3BCE
102
{ACAD_REACTORS
330
3BB0
102
}
330
1F
100
AcDbEntity
  8
粗实线
 48
0.1
100
AcDbLine
 10
835.084878622656
 20
575.9996667867635
 30
0.0
 11
835.084878622656
 21
557.7251394858321
 31
0.0
  0
LINE
  5
3BCF
330
1F
100
AcDbEntity
  8
粗实线
 48
0.1
100
AcDbLine
 10
833.754318622654
 20
557.7251394858321
 30
0.0
 11
833.754318622654
 21
556.39457948583
 31
0.0
  0
LINE
  5
3BD0
330
1F
100
AcDbEntity
  8
中心线
 48
0.1
100
AcDbLine
 10
841.0723986226548
 20
538.6781771318529
 30
0.0
 11
841.0723986226548
 21
564.4533500643082
 31
0.0
  0
HATCH
  5
3BD1
330
1F
100
AcDbEntity
  8
剖切线
100
AcDbHatch
 10
0.0
 20
0.0
 30
0.0
210
0.0
220
0.0
230
1.0
  2
ANSI31
 70
     0
 71
     0
 91
        1
 92
        7
 72
     1
 73
     1
 93
        8
 10
816.4712050768429
 20
550.0758776638177
 42
-0.3003703345698273
 10
811.8217863827267
 20
553.6515774010731
 42
0.0
 10
810.4994906504762
 20
557.491803050183
 42
0.0
 10
807.9833522585831
 20
556.6254271229955
 42
0.0
 10
809.3056479908264
 20
552.7852014739002
 42
0.3003703345697881
 10
816.2797760320026
 20
547.4216518680004
 42
0.0070565129482686
 10
829.1019328668918
 20
546.6786123713027
 42
0.0
 10
829.1483919991188
 20
549.3402542737967
 42
-0.0070177978545288
 97
        0
 75
     0
 76
     1
 52
-0.9999999998692691
 41
0.6652800000000002
 77
     0
 78
     1
 53
43.99999999980775
 43
3055.320602188527
 44
-2861.262640495006
 45
-1.467301868219584
 46
1.519435564022496
 79
     0
 47
0.1104702278856199
 98
        1
 10
821.4192682844405
 20
549.2644894632685
  0
LINE
  5
3BD2
330
1F
100
AcDbEntity
  8
粗实线
100
AcDbLine
 10
829.1019328668918
 20
546.6786123712918
 30
0.0
 11
829.1483919991151
 21
549.3402542737822
 31
0.0
  0
LINE
  5
3BD3
330
1F
100
AcDbEntity
  8
粗实线
100
AcDbLine
 10
853.0483651537034
 20
546.2606258409286
 30
0.0
 11
853.0948242859231
 21
548.9222677434262
 31
0.0
  0
ARC
  5
3BD4
330
1F
100
AcDbEntity
  8
粗实线
100
AcDbCircle
 10
849.0141426996014
 20
1001.294262953063
 30
0.0
 40
452.3904000000001
100
AcDbArc
 50
265.8748354479506
 51
268.4884423862466
  0
ARC
  5
3BD5
330
1F
100
AcDbEntity
  8
粗实线
100
AcDbCircle
 10
849.0141426996014
 20
1001.294262953063
 30
0.0
 40
452.3904000000001
100
AcDbArc
 50
269.4997133532673
 51
272.0817910569315
  0
ARC
  5
3BD6
330
1F
100
AcDbEntity
  8
粗实线
100
AcDbCircle
 10
816.85406316652
 20
555.3843292554375
 30
0.0
 40
5.322240000000001
100
AcDbArc
 50
198.9999999997986
 51
265.8748354479506
  0
ARC
  5
3BD7
330
1F
100
AcDbEntity
  8
粗实线
100
AcDbCircle
 10
816.85406316652
 20
555.3843292554375
 30
0.0
 40
7.983360000000002
100
AcDbArc
 50
198.9999999997986
 51
265.8748354479506
  0
ARC
  5
3BD8
330
1F
100
AcDbEntity
  8
粗实线
100
AcDbCircle
 10
849.0141426996014
 20
1001.294262953063
 30
0.0
 40
455.0515200000001
100
AcDbArc
 50
265.8748354479506
 51
272.0817910569315
  0
LINE
  5
3BD9
330
1F
100
AcDbEntity
  8
粗实线
100
AcDbLine
 10
810.4994906504762
 20
557.4918030501684
 30
0.0
 11
811.8217863827267
 21
553.6515774010621
 31
0.0
  0
LINE
  5
3BDA
330
1F
100
AcDbEntity
  8
粗实线
100
AcDbLine
 10
807.9833522585795
 20
556.6254271229736
 30
0.0
 11
809.3056479908264
 21
552.7852014738746
 31
0.0
  0
LINE
  5
3BDB
330
1F
100
AcDbEntity
  8
粗实线
100
AcDbLine
 10
807.9833522585795
 20
556.6254271229736
 30
0.0
 11
810.4994906504762
 21
557.4918030501684
 31
0.0
  0
ARC
  5
3BDC
330
1F
100
AcDbEntity
  8
粗实线
100
AcDbCircle
 10
865.5925989204698
 20
554.5335949493492
 30
0.0
 40
5.322240000000001
100
AcDbArc
 50
272.1251645521351
 51
339.0000000002061
  0
ARC
  5
3BDD
330
1F
100
AcDbEntity
  8
粗实线
100
AcDbCircle
 10
865.5925989204698
 20
554.5335949493492
 30
0.0
 40
7.983360000000002
100
AcDbArc
 50
272.1251645521351
 51
339.0000000002061
  0
LINE
  5
3BDE
330
1F
100
AcDbEntity
  8
粗实线
100
AcDbLine
 10
872.0168501773805
 20
556.4180135454116
 30
0.0
 11
870.5613380095929
 21
552.626274713566
 31
0.0
  0
LINE
  5
3BDF
330
1F
100
AcDbEntity
  8
粗实线
100
AcDbLine
 10
874.5012197219438
 20
555.4643534275092
 30
0.0
 11
873.0457075541528
 21
551.6726145956745
 31
0.0
  0
LINE
  5
3BE0
330
1F
100
AcDbEntity
  8
粗实线
100
AcDbLine
 10
874.5012197219438
 20
555.4643534275092
 30
0.0
 11
872.0168501773805
 21
556.4180135454116
 31
0.0
  0
HATCH
  5
3BE1
330
1F
100
AcDbEntity
  8
剖切线
100
AcDbHatch
 10
0.0
 20
0.0
 30
0.0
210
0.0
220
0.0
230
1.0
  2
ANSI31
 70
     0
 71
     0
 91
        1
 92
        7
 72
     1
 73
     1
 93
        8
 10
853.0948242859269
 20
548.9222677434262
 42
0.0070177978545289
 10
865.7899614945309
 20
549.215015568363
 42
0.3003703345697906
 10
870.5613380095964
 20
552.626274713566
 42
0.0
 10
872.0168501773805
 20
556.4180135454225
 42
0.0
 10
874.5012197219438
 20
555.4643534275201
 42
0.0
 10
873.0457075541451
 20
551.6726145956853
 42
-0.3003703345697731
 10
865.8886427815597
 20
546.5557258778753
 42
-0.0070565129482688
 10
853.0483651537034
 20
546.2606258409177
 42
0.0
 97
        0
 75
     0
 76
     1
 52
-0.9999999998692691
 41
0.6652800000000002
 77
     0
 78
     1
 53
43.99999999980775
 43
3055.320602188527
 44
-2861.262640495006
 45
-1.467301868219584
 46
1.519435564022496
 79
     0
 47
0.1104702278856199
 98
        1
 10
860.8165954735195
 20
548.5768065591765
  0
SPLINE
  5
3BE2
102
{ACAD_REACTORS
330
3BB0
102
}
330
1F
100
AcDbEntity
  8
细实线
100
AcDbSpline
210
0.0
220
0.0
230
1.0
 70
     8
 71
     3
 72
    11
 73
     7
 74
     5
 42
0.0000000001
 43
0.0000000001
 44
0.0000000001
 40
0.0
 40
0.0
 40
0.0
 40
0.0
 40
9.772388244965684
 40
19.74420542844686
 40
28.87401972480267
 40
35.16651116270563
 40
35.16651116270563
 40
35.16651116270563
 40
35.16651116270563
 10
783.2143714017619
 20
590.9891394858277
 30
0.0
 10
785.1670656159471
 20
587.9739607223004
 30
0.0
 10
789.1123034367707
 20
581.8820712661846
 30
0.0
 10
781.471632749606
 20
572.7645612603829
 30
0.0
 10
787.4392419399115
 20
564.222401739122
 30
0.0
 10
784.438650011264
 20
559.6079094133841
 30
0.0
 10
783.2143714017619
 20
557.7251394858321
 30
0.0
 11
783.2143714017619
 21
590.9891394858277
 31
0.0
 11
786.8260393108612
 21
581.9086424220803
 31
0.0
 11
783.8496900748943
 21
572.3913695371448
 31
0.0
 11
785.7843450357178
 21
563.4688912228812
 31
0.0
 11
783.2143714017619
 21
557.7251394858321
 31
0.0
  0
LINE
  5
3BE3
330
1F
100
AcDbEntity
  8
粗实线
 62
     0
100
AcDbLine
 10
890.0522105391427
 20
514.3762687239395
 30
0.0
 11
888.3203204130696
 21
554.0430741271921
 31
0.0
  0
LINE
  5
3BE4
330
1F
100
AcDbEntity
  8
粗实线
 62
     0
100
AcDbLine
 10
888.8299930352841
 20
514.1747579528201
 30
0.0
 11
887.0894930040778
 21
553.9893350419552
 31
0.0
  0
LINE
  5
3BE5
330
1F
100
AcDbEntity
  8
粗实线
 62
     0
100
AcDbLine
 10
867.2522099676571
 20
557.7251394858321
 30
0.0
 11
884.4739847599775
 21
557.7251394858321
 31
0.0
  0
ARC
  5
3BE6
330
1F
100
AcDbEntity
  8
粗实线
 62
     0
100
AcDbCircle
 10
884.4739847599775
 20
553.87513948583
 30
0.0
 40
3.850000000000001
100
AcDbArc
 50
2.50000000017063
 51
90.0
  0
ARC
  5
3BE7
330
1F
100
AcDbEntity
  8
粗实线
 62
     0
100
AcDbCircle
 10
884.4739847599775
 20
553.87513948583
 30
0.0
 40
2.618
100
AcDbArc
 50
2.499999999961819
 51
90.0
  0
LINE
  5
3BE8
330
1F
100
AcDbEntity
  8
粗实线
 62
     0
100
AcDbLine
 10
865.3053156715213
 20
556.4952954858418
 30
0.0
 11
884.4739847599775
 21
556.4931394858322
 31
0.0
  0
LINE
  5
3BE9
330
1F
100
AcDbEntity
  8
粗实线
 62
     0
100
AcDbLine
 10
884.4739847599775
 20
557.7251394858321
 30
0.0
 11
902.2060203208312
 21
557.7251394858321
 31
0.0
  0
LINE
  5
3BEA
330
1F
100
AcDbEntity
  8
粗实线
100
AcDbLine
 10
865.3053156715213
 20
557.7251394858321
 30
0.0
 11
865.3053156715213
 21
556.4952954858418
 31
0.0
  0
LINE
  5
3BEB
330
1F
100
AcDbEntity
  8
粗实线
100
AcDbLine
 10
887.0894930040778
 20
556.7003149892371
 30
0.0
 11
909.3529486985572
 21
577.1731316645527
 31
0.0
  0
LINE
  5
3BEC
330
1F
100
AcDbEntity
  8
粗实线
100
AcDbLine
 10
909.3529486985572
 20
577.1731316645527
 30
0.0
 11
911.006004940482
 21
577.1731316645527
 31
0.0
  0
LINE
  5
3BED
330
1F
100
AcDbEntity
  8
粗实线
100
AcDbLine
 10
831.9980158916004
 20
590.9891394858277
 30
0.0
 11
821.6230080139101
 21
602.9692283829608
 31
0.0
  0
LINE
  5
3BEE
330
1F
100
AcDbEntity
  8
粗实线
100
AcDbLine
 10
821.6230080139101
 20
602.9692283829608
 30
0.0
 11
818.1651083079524
 21
602.9692283829608
 31
0.0
  0
LINE
  5
3BEF
330
1F
100
AcDbEntity
  8
粗实线
100
AcDbLine
 10
816.2797760321627
 20
547.4216518679822
 30
0.0
 11
806.1908945516369
 21
534.3672165026691
 31
0.0
  0
LINE
  5
3BF0
330
1F
100
AcDbEntity
  8
粗实线
100
AcDbLine
 10
806.1908945516369
 20
534.3672165026691
 30
0.0
 11
801.5050182947925
 21
534.3672165026691
 31
0.0
  0
LINE
  5
3BF1
330
1F
100
AcDbEntity
  8
粗实线
100
AcDbLine
 10
834.3417702407569
 20
541.5907192510167
 30
0.0
 11
835.3069154778932
 21
522.1995743081424
 31
0.0
  0
LINE
  5
3BF2
330
1F
100
AcDbEntity
  8
粗实线
100
AcDbLine
 10
837.9018260552184
 20
522.1995743081424
 30
0.0
 11
835.3069154778932
 21
522.1995743081424
 31
0.0
  0
MTEXT
  5
3BF3
330
1F
100
AcDbEntity
  8
粗实线
100
AcDbMText
 10
913.1082616649656
 20
581.4528772252669
 30
0.0
 40
6.160000000000001
 41
639.645506911315
 46
0.0
 71
     1
 72
     5
  1
{\fTahoma|b0|i0|c0|p34;SINK}
 73
     1
 44
1.0
  0
MTEXT
  5
3BF4
330
1F
100
AcDbEntity
  8
粗实线
100
AcDbMText
 10
763.3842309307038
 20
607.1357611089953
 30
0.0
 40
6.160000000000001
 41
639.645506911315
 46
0.0
 71
     1
 72
     5
  1
{\fTahoma|b0|i0|c0|p34;COUNTERTOP}
 73
     1
 44
1.0
  0
MTEXT
  5
3BF5
330
1F
100
AcDbEntity
  8
粗实线
100
AcDbMText
 10
759.8064259406783
 20
537.6118409101691
 30
0.0
 40
6.160000000000001
 41
639.645506911315
 46
0.0
 71
     1
 72
     5
  1
{\fTahoma|b0|i0|c0|p34;FASTENER}
 73
     1
 44
1.0
  0
MTEXT
  5
3BF6
330
1F
100
AcDbEntity
  8
粗实线
100
AcDbMText
 10
839.0964725472404
 20
526.2271691609567
 30
0.0
 40
6.160000000000001
 41
639.645506911315
 46
0.0
 71
     1
 72
     5
  1
{\fTahoma|b0|i0|c0|p34;SCREWS}
 73
     1
 44
1.0
  0
SOLID
  5
3BF8
330
1F
100
AcDbEntity
  8
粗实线
100
AcDbTrace
 10
561.2209176457908
 20
280.923160914881
 30
0.0
 11
562.6234275431125
 21
274.8377184139317
 31
0.0
 12
559.3230719642597
 22
280.1393500021841
 32
0.0
 13
559.3230719642597
 23
280.1393500021841
 33
0.0
1001
ACAD
1000
DSTYLE
1002
{
1070
    41
1040
8.0
1070
   147
1040
3.0
1070
    77
1070
     0
1002
}
  0
MTEXT
  5
3BF9
330
1F
100
AcDbEntity
  8
粗实线
100
AcDbMText
 10
518.2993194273621
 20
302.9559951763587
 30
0.0
 40
5.600000000000001
 41
214.8192584769648
 46
0.0
 71
     1
 72
     5
  1
{\fTahoma|b0|i0|c0|p34;Use this line for FLUSH MOUNT CUT.}
  7
样式 8
 73
     1
 44
1.0
  0
LINE
  5
3BFA
330
1F
100
AcDbEntity
  8
0
100
AcDbLine
 10
560.4857614175744
 20
280.0136611817506
 30
0.0
 11
554.5167082970946
 21
294.4665623904984
 31
0.0
  0
MTEXT
  5
3BFB
330
1F
100
AcDbEntity
  8
粗实线
100
AcDbMText
 10
488.5377849603356
 20
501.1146881390523
 30
0.0
 40
7.700000000000001
 41
639.645506911315
 46
0.0
 71
     1
 72
     5
  1
\fArial|b0|i0|c0|p34;Use outside line for reveal mount cut:\PSink rim is ¼” revealed from the countertop opening.
 73
     1
 44
1.0
  0
MTEXT
  5
3BFC
330
1F
100
AcDbEntity
  8
粗实线
100
AcDbMText
 10
488.5377849603356
 20
457.7889918127003
 30
0.0
 40
7.700000000000001
 41
639.645506911315
 46
0.0
 71
     1
 72
     5
  1
\fArial|b0|i0|c0|p34;Use middle line for flush mount cut:\PSink wall is flush to the edge of countertop opening.
 73
     1
 44
1.0
  0
MTEXT
  5
3BFD
330
1F
100
AcDbEntity
  8
粗实线
100
AcDbMText
 10
488.5377849603356
 20
414.0110447293263
 30
0.0
 40
7.700000000000001
 41
639.645506911315
 46
0.0
 71
     1
 72
     5
  1
\fArial|b0|i0|c0|p34;Use inside line for negative reveal mount cut:\PSink wall is covered ¼” inside the edge of countertop opening.
 73
     1
 44
1.0
  0
MTEXT
  5
3BFE
330
1F
100
AcDbEntity
  8
粗实线
100
AcDbMText
 10
489.0377849603356
 20
367.5565139436112
 30
0.0
 40
7.700000000000001
 41
639.645506911315
 46
0.0
 71
     1
 72
     5
  1
\fArial|b0|i0|c0|p34;Please check actual template against physical sink unit for most accurate cut.
 73
     1
 44
1.0
  0
DIMENSION
  5
3D0F
330
1F
100
AcDbEntity
  8
标注
100
AcDbDimension
  2
*D1
 10
974.2287068779987
 20
437.7339531803229
 30
0.0
 11
893.8787068779967
 21
437.7339531803229
 31
0.0
 70
   160
  1
{\fArial|b0|i0|c0|p34;<>}
 71
     5
 42
6.350000000002182
 73
     0
 74
     0
 75
     0
  3
英寸
100
AcDbAlignedDimension
 13
967.8787068779966
 23
473.8613800361247
 33
0.0
 14
974.2287068779987
 24
473.8613800361174
 34
0.0
100
AcDbRotatedDimension
1001
ACAD
1000
DSTYLE
1002
{
1070
    41
1040
8.0
1002
}
  0
DIMENSION
  5
3D10
330
1F
100
AcDbEntity
  8
标注
100
AcDbDimension
  2
*D2
 10
980.5787068780009
 20
401.3346035499392
 30
0.0
 11
900.2287068779988
 21
401.3346035499392
 31
0.0
 70
   160
  1
{\fArial|b0|i0|c0|p34;<>}
 71
     5
 42
6.350000000002182
 73
     0
 74
     0
 75
     0
  3
英寸
100
AcDbAlignedDimension
 13
974.2287068779987
 23
473.8613800361174
 33
0.0
 14
980.5787068780009
 24
473.8613800361247
 34
0.0
100
AcDbRotatedDimension
1001
ACAD
1000
DSTYLE
1002
{
1070
    41
1040
8.0
1002
}
  0
DIMENSION
  5
3D59
330
1F
100
AcDbEntity
  8
标注
100
AcDbDimension
  2
*D3
 10
440.2287068779959
 20
742.7225673309668
 30
0.0
 11
707.4951944000786
 21
742.7225673309668
 31
0.0
 70
   160
  1
{\fArial|b0|i0|c0|p34;<>}
 71
     5
 42
534.0000000000026
 73
     0
 74
     0
 75
     0
  3
英寸
100
AcDbAlignedDimension
 13
974.2287068779987
 23
669.0
 33
0.0
 14
440.2287068779959
 24
678.0
 34
0.0
100
AcDbRotatedDimension
1001
ACAD
1000
DSTYLE
1002
{
1070
    41
1040
8.0
1002
}
  0
DIMENSION
  5
3D5A
330
1F
100
AcDbEntity
  8
标注
100
AcDbDimension
  2
*D4
 10
357.5
 20
273.8613800362946
 30
0.0
 11
357.5
 21
501.8500000000008
 31
0.0
 70
   160
  1
{\fArial|b0|i0|c0|p34;<>}
 71
     5
 42
400.0000000000001
 73
     0
 74
     0
 75
     0
  3
英寸
100
AcDbAlignedDimension
 13
420.0
 23
673.8613800362948
 33
0.0
 14
425.0
 24
273.8613800362946
 34
0.0
 50
90.0
100
AcDbRotatedDimension
1001
ACAD
1000
DSTYLE
1002
{
1070
    41
1040
8.0
1002
}
  0
DIMENSION
  5
3D5B
330
1F
100
AcDbEntity
  8
标注
100
AcDbDimension
  2
*D5
 10
433.8787068779983
 20
776.2225673309668
 30
0.0
 11
707.4953762927435
 21
776.2225673309668
 31
0.0
 70
   160
  1
{\fArial|b0|i0|c0|p34;<>}
 71
     5
 42
546.7000000000025
 73
     0
 74
     0
 75
     0
  3
英寸
100
AcDbAlignedDimension
 13
980.5787068780009
 23
670.0
 33
0.0
 14
433.8787068779983
 24
678.0
 34
0.0
100
AcDbRotatedDimension
1001
ACAD
1000
DSTYLE
1002
{
1070
    41
1040
8.0
1002
}
  0
DIMENSION
  5
3D5C
330
1F
100
AcDbEntity
  8
标注
100
AcDbDimension
  2
*D6
 10
326.5
 20
267.5113800362943
 30
0.0
 11
326.5
 21
501.8500000000019
 31
0.0
 70
   160
  1
{\fArial|b0|i0|c0|p34;<>}
 71
     5
 42
412.7000000000019
 73
     0
 74
     0
 75
     0
  3
英寸
100
AcDbAlignedDimension
 13
421.0
 23
680.2113800362961
 33
0.0
 14
426.4999999999999
 24
267.5113800362942
 34
0.0
 50
90.0
100
AcDbRotatedDimension
1001
ACAD
1000
DSTYLE
1002
{
1070
    41
1040
8.0
1002
}
  0
DIMENSION
  5
3D5D
330
1F
100
AcDbEntity
  8
标注
100
AcDbDimension
  2
*D7
 10
446.5787068779991
 20
711.7225673309668
 30
0.0
 11
707.4950124435437
 21
711.7225673309668
 31
0.0
 70
   160
  1
{\fArial|b0|i0|c0|p34;<>}
 71
     5
 42
521.2999999999974
 73
     0
 74
     0
 75
     0
  3
英寸
100
AcDbAlignedDimension
 13
967.8787068779966
 23
667.4999999999999
 33
0.0
 14
446.5787068779991
 24
677.5
 34
0.0
100
AcDbRotatedDimension
1001
ACAD
1000
DSTYLE
1002
{
1070
    41
1040
8.0
1002
}
  0
DIMENSION
  5
3D5E
330
1F
100
AcDbEntity
  8
标注
100
AcDbDimension
  2
*D8
 10
385.5
 20
280.2113800362949
 30
0.0
 11
385.5
 21
502.0300000000003
 31
0.0
 70
   160
  1
{\fArial|b0|i0|c0|p34;<>}
 71
     5
 42
387.2999999999994
 73
     0
 74
     0
 75
     0
  3
英寸
100
AcDbAlignedDimension
 13
420.5
 23
667.5113800362942
 33
0.0
 14
425.0
 24
280.2113800362949
 34
0.0
 50
90.0
100
AcDbRotatedDimension
1001
ACAD
1000
DSTYLE
1002
{
1070
    41
1040
8.0
1002
}
  0
MTEXT
  5
4008
330
1F
100
AcDbEntity
  8
粗实线
100
AcDbMText
 10
835.0591833128346
 20
296.3471942116303
 30
0.0
 40
6.720000000000001
 41
257.7831101723577
 46
0.0
 71
     1
 72
     5
  1
{\fTahoma|b0|i0|c134|p34;U214}
  7
样式 8
 73
     1
 44
1.0
  0
ENDSEC
  0
SECTION
  2
OBJECTS
  0
DICTIONARY
  5
C
330
0
100
AcDbDictionary
281
     1
  3
ACAD_COLOR
350
3513
  3
ACAD_GROUP
350
D
  3
ACAD_LAYOUT
350
1A
  3
ACAD_MATERIAL
350
350F
  3
ACAD_MLINESTYLE
350
17
  3
ACAD_PLOTSETTINGS
350
19
  3
ACAD_PLOTSTYLENAME
350
E
  3
ACAD_TABLESTYLE
350
E9
  3
ACAD_VISUALSTYLE
350
28
  3
AcDbVariableDictionary
350
366A
  0
DICTIONARY
  5
36E2
330
2
100
AcDbDictionary
280
     1
281
     1
  3
ACAD_LAYERSTATES
360
36E3
  0
DICTIONARY
  5
3513
102
{ACAD_REACTORS
330
C
102
}
330
C
100
AcDbDictionary
281
     1
  0
DICTIONARY
  5
D
102
{ACAD_REACTORS
330
C
102
}
330
C
100
AcDbDictionary
281
     1
  0
DICTIONARY
  5
1A
102
{ACAD_REACTORS
330
C
102
}
330
C
100
AcDbDictionary
281
     1
  3
Layout1
350
1E
  3
Layout2
350
24
  3
Model
350
22
  0
DICTIONARY
  5
350F
102
{ACAD_REACTORS
330
C
102
}
330
C
100
AcDbDictionary
281
     1
  3
ByBlock
350
3511
  3
ByLayer
350
3510
  3
Global
350
3512
  0
DICTIONARY
  5
17
102
{ACAD_REACTORS
330
C
102
}
330
C
100
AcDbDictionary
281
     1
  3
Standard
350
18
  0
DICTIONARY
  5
19
102
{ACAD_REACTORS
330
C
102
}
330
C
100
AcDbDictionary
281
     1
  0
ACDBDICTIONARYWDFLT
  5
E
102
{ACAD_REACTORS
330
C
102
}
330
C
100
AcDbDictionary
281
     1
  3
Normal
350
F
100
AcDbDictionaryWithDefault
340
F
  0
DICTIONARY
  5
E9
102
{ACAD_REACTORS
330
C
102
}
330
C
100
AcDbDictionary
281
     1
  3
Standard
350
4617
  0
DICTIONARY
  5
28
102
{ACAD_REACTORS
330
C
102
}
330
C
100
AcDbDictionary
281
     1
  3
2dWireframe
350
2D
  3
3D Hidden
350
2F
  3
3dWireframe
350
2E
  3
Basic
350
30
  3
Brighten
350
34
  3
ColorChange
350
38
  3
Conceptual
350
32
  3
Dim
350
33
  3
Facepattern
350
37
  3
Flat
350
29
  3
FlatWithEdges
350
2A
  3
Gouraud
350
2B
  3
GouraudWithEdges
350
2C
  3
Linepattern
350
36
  3
Realistic
350
31
  3
Thicken
350
35
  0
DICTIONARY
  5
366A
102
{ACAD_REACTORS
330
C
102
}
330
C
100
AcDbDictionary
281
     1
  3
CTABLESTYLE
350
366B
  0
DICTIONARY
  5
36E3
102
{ACAD_REACTORS
330
36E2
102
}
330
36E2
100
AcDbDictionary
281
     1
  0
LAYOUT
  5
1E
102
{ACAD_REACTORS
330
1A
102
}
330
1A
100
AcDbPlotSettings
  1

  2
none_device
  4

  6

 40
0.0
 41
0.0
 42
0.0
 43
0.0
 44
0.0
 45
0.0
 46
0.0
 47
0.0
 48
0.0
 49
0.0
140
0.0
141
0.0
142
1.0
143
1.0
 70
   688
 72
     0
 73
     0
 74
     5
  7

 75
    16
147
1.0
 76
     0
 77
     2
 78
   300
148
0.0
149
0.0
100
AcDbLayout
  1
Layout1
 70
     1
 71
     1
 10
0.0
 20
0.0
 11
12.0
 21
9.0
 12
0.0
 22
0.0
 32
0.0
 14
1.000000000000000E+20
 24
1.000000000000000E+20
 34
1.000000000000000E+20
 15
-1.000000000000000E+20
 25
-1.000000000000000E+20
 35
-1.000000000000000E+20
146
0.0
 13
0.0
 23
0.0
 33
0.0
 16
1.0
 26
0.0
 36
0.0
 17
0.0
 27
1.0
 37
0.0
 76
     0
330
1B
  0
LAYOUT
  5
24
102
{ACAD_REACTORS
330
1A
102
}
330
1A
100
AcDbPlotSettings
  1

  2
none_device
  4

  6

 40
0.0
 41
0.0
 42
0.0
 43
0.0
 44
0.0
 45
0.0
 46
0.0
 47
0.0
 48
0.0
 49
0.0
140
0.0
141
0.0
142
1.0
143
1.0
 70
   688
 72
     0
 73
     0
 74
     5
  7

 75
    16
147
1.0
 76
     0
 77
     2
 78
   300
148
0.0
149
0.0
100
AcDbLayout
  1
Layout2
 70
     1
 71
     2
 10
0.0
 20
0.0
 11
0.0
 21
0.0
 12
0.0
 22
0.0
 32
0.0
 14
0.0
 24
0.0
 34
0.0
 15
0.0
 25
0.0
 35
0.0
146
0.0
 13
0.0
 23
0.0
 33
0.0
 16
1.0
 26
0.0
 36
0.0
 17
0.0
 27
1.0
 37
0.0
 76
     0
330
23
  0
LAYOUT
  5
22
102
{ACAD_REACTORS
330
1A
102
}
330
1A
100
AcDbPlotSettings
  1

  2
pdfFactory Pro
  4
A4
  6

 40
6.349999999999999
 41
6.350000000000008
 42
6.350000000000018
 43
6.349999999999999
 44
210.0
 45
297.0
 46
-0.0000000000000008
 47
1.221428571429238
 48
278.5
 49
222.0
140
1045.0
141
825.5
142
1.0
143
4.418792565678784
 70
  1716
 72
     1
 73
     1
 74
     4
  7
Monochrome.ctb
 75
     0
147
0.2263061651201061
 76
     0
 77
     2
 78
   300
148
0.0
149
0.0
100
AcDbLayout
  1
Model
 70
     1
 71
     0
 10
0.0
 20
0.0
 11
12.0
 21
9.0
 12
0.0
 22
0.0
 32
0.0
 14
303.6487039563438
 24
267.5113800362942
 34
0.0
 15
996.5787068780009
 25
799.0738633746227
 35
0.0
146
0.0
 13
0.0
 23
0.0
 33
0.0
 16
1.0
 26
0.0
 36
0.0
 17
0.0
 27
1.0
 37
0.0
 76
     0
330
1F
331
27
  0
MATERIAL
  5
3511
102
{ACAD_XDICTIONARY
360
460D
102
}
102
{ACAD_REACTORS
330
350F
102
}
330
350F
100
AcDbMaterial
  1
ByBlock
  0
MATERIAL
  5
3510
102
{ACAD_XDICTIONARY
360
460F
102
}
102
{ACAD_REACTORS
330
350F
102
}
330
350F
100
AcDbMaterial
  1
ByLayer
  0
MATERIAL
  5
3512
102
{ACAD_XDICTIONARY
360
4611
102
}
102
{ACAD_REACTORS
330
350F
102
}
330
350F
100
AcDbMaterial
  1
Global
  0
MLINESTYLE
  5
18
102
{ACAD_REACTORS
330
17
102
}
330
17
100
AcDbMlineStyle
  2
STANDARD
 70
     0
  3

 62
   256
 51
90.0
 52
90.0
 71
     2
 49
0.5
 62
   256
  6
BYLAYER
 49
-0.5
 62
   256
  6
BYLAYER
  0
ACDBPLACEHOLDER
  5
F
102
{ACAD_REACTORS
330
E
102
}
330
E
  0
TABLESTYLE
  5
4617
102
{ACAD_REACTORS
330
E9
102
}
330
E9
100
AcDbTableStyle
  3
Standard
 70
     0
 71
     0
 40
0.06
 41
0.06
280
     0
281
     0
  7
Standard
140
0.18
170
     2
 62
     0
 63
     7
283
     0
 90
      512
 91
        0
  1

274
    -2
284
     1
 64
     0
275
    -2
285
     1
 65
     0
276
    -2
286
     1
 66
     0
277
    -2
287
     1
 67
     0
278
    -2
288
     1
 68
     0
279
    -2
289
     1
 69
     0
  7
Standard
140
0.25
170
     5
 62
     0
 63
     7
283
     0
 90
      512
 91
        0
  1

274
    -2
284
     1
 64
     0
275
    -2
285
     1
 65
     0
276
    -2
286
     1
 66
     0
277
    -2
287
     1
 67
     0
278
    -2
288
     1
 68
     0
279
    -2
289
     1
 69
     0
  7
Standard
140
0.18
170
     5
 62
     0
 63
     7
283
     0
 90
      512
 91
        0
  1

274
    -2
284
     1
 64
     0
275
    -2
285
     1
 65
     0
276
    -2
286
     1
 66
     0
277
    -2
287
     1
 67
     0
278
    -2
288
     1
 68
     0
279
    -2
289
     1
 69
     0
  0
VISUALSTYLE
  5
2D
102
{ACAD_REACTORS
330
28
102
}
330
28
100
AcDbVisualStyle
  2
2dWireframe
 70
     4
 71
     0
 72
     2
 73
     0
 90
        0
 40
-0.6
 41
-30.0
 62
     5
 63
     7
 74
     1
 91
        4
 64
     7
 65
   257
 75
     1
175
     1
 42
1.0
 92
        0
 66
   257
 43
1.0
 76
     1
 77
     6
 78
     2
 67
     7
 79
     5
170
     0
171
     0
290
     0
174
     0
 93
        1
 44
0.0
173
     0
291
     0
 45
0.0
1001
ACAD
1000
AcDbSavedByObjectVersion
1070
     0
  0
VISUALSTYLE
  5
2F
102
{ACAD_REACTORS
330
28
102
}
330
28
100
AcDbVisualStyle
  2
3D Hidden
 70
     6
 71
     1
 72
     2
 73
     2
 90
        0
 40
-0.6
 41
-30.0
 62
     5
 63
     7
 74
     2
 91
        2
 64
     7
 65
   257
 75
     2
175
     1
 42
40.0
 92
        0
 66
   257
 43
1.0
 76
     1
 77
     6
 78
     2
 67
     7
 79
     3
170
     0
171
     0
290
     0
174
     0
 93
        1
 44
0.0
173
     0
291
     0
 45
0.0
1001
ACAD
1000
AcDbSavedByObjectVersion
1070
     0
  0
VISUALSTYLE
  5
2E
102
{ACAD_REACTORS
330
28
102
}
330
28
100
AcDbVisualStyle
  2
3dWireframe
 70
     5
 71
     0
 72
     2
 73
     0
 90
        0
 40
-0.6
 41
-30.0
 62
     5
 63
     7
 74
     1
 91
        4
 64
     7
 65
   257
 75
     1
175
     1
 42
1.0
 92
        0
 66
   257
 43
1.0
 76
     1
 77
     6
 78
     2
 67
     7
 79
     5
170
     0
171
     0
290
     0
174
     0
 93
        1
 44
0.0
173
     0
291
     0
 45
0.0
1001
ACAD
1000
AcDbSavedByObjectVersion
1070
     0
  0
VISUALSTYLE
  5
30
102
{ACAD_REACTORS
330
28
102
}
330
28
100
AcDbVisualStyle
  2
Basic
 70
     7
 71
     1
 72
     0
 73
     1
 90
        0
 40
-0.6
 41
-30.0
 62
     5
 63
     7
 74
     0
 91
        4
 64
     7
 65
   257
 75
     1
175
     1
 42
1.0
 92
        8
 66
     7
 43
1.0
 76
     1
 77
     6
 78
     2
 67
     7
 79
     5
170
     0
171
     0
290
     0
174
     0
 93
        1
 44
0.0
173
     0
291
     1
 45
0.0
1001
ACAD
1000
AcDbSavedByObjectVersion
1070
     0
  0
VISUALSTYLE
  5
34
102
{ACAD_REACTORS
330
28
102
}
330
28
100
AcDbVisualStyle
  2
Brighten
 70
    12
 71
     2
 72
     2
 73
     0
 90
        0
 40
-0.6
 41
-30.0
 62
     5
 63
     7
 74
     1
 91
        4
 64
     7
 65
   257
 75
     1
175
     1
 42
1.0
 92
        8
 66
     7
 43
1.0
 76
     1
 77
     6
 78
     2
 67
     7
 79
     5
170
     0
171
     0
290
     0
174
     0
 93
        1
 44
50.0
173
     0
291
     1
 45
0.0
1001
ACAD
1000
AcDbSavedByObjectVersion
1070
     0
  0
VISUALSTYLE
  5
38
102
{ACAD_REACTORS
330
28
102
}
330
28
100
AcDbVisualStyle
  2
ColorChange
 70
    16
 71
     2
 72
     2
 73
     3
 90
        0
 40
-0.6
 41
-30.0
 62
     5
 63
     8
 74
     1
 91
        4
 64
     7
 65
   257
 75
     1
175
     1
 42
1.0
 92
        8
 66
     8
 43
1.0
 76
     1
 77
     6
 78
     2
 67
     7
 79
     5
170
     0
171
     0
290
     0
174
     0
 93
        1
 44
0.0
173
     0
291
     1
 45
0.0
1001
ACAD
1000
AcDbSavedByObjectVersion
1070
     0
  0
VISUALSTYLE
  5
32
102
{ACAD_REACTORS
330
28
102
}
330
28
100
AcDbVisualStyle
  2
Conceptual
 70
     9
 71
     3
 72
     2
 73
     0
 90
        0
 40
-0.6
 41
-30.0
 62
     5
 63
     7
 74
     2
 91
        2
 64
     7
 65
   257
 75
     1
175
     1
 42
40.0
 92
        8
 66
     7
 43
1.0
 76
     1
 77
     6
 78
     2
 67
     7
 79
     3
170
     0
171
     0
290
     0
174
     0
 93
        1
 44
0.0
173
     0
291
     0
 45
0.0
1001
ACAD
1000
AcDbSavedByObjectVersion
1070
     0
  0
VISUALSTYLE
  5
33
102
{ACAD_REACTORS
330
28
102
}
330
28
100
AcDbVisualStyle
  2
Dim
 70
    11
 71
     2
 72
     2
 73
     0
 90
        0
 40
-0.6
 41
-30.0
 62
     5
 63
     7
 74
     1
 91
        4
 64
     7
 65
   257
 75
     1
175
     1
 42
1.0
 92
        8
 66
     7
 43
1.0
 76
     1
 77
     6
 78
     2
 67
     7
 79
     5
170
     0
171
     0
290
     0
174
     0
 93
        1
 44
-50.0
173
     0
291
     1
 45
0.0
1001
ACAD
1000
AcDbSavedByObjectVersion
1070
     0
  0
VISUALSTYLE
  5
37
102
{ACAD_REACTORS
330
28
102
}
330
28
100
AcDbVisualStyle
  2
Facepattern
 70
    15
 71
     2
 72
     2
 73
     0
 90
        0
 40
-0.6
 41
-30.0
 62
     5
 63
     7
 74
     1
 91
        4
 64
     7
 65
   257
 75
     1
175
     1
 42
1.0
 92
        8
 66
     7
 43
1.0
 76
     1
 77
     6
 78
     2
 67
     7
 79
     5
170
     0
171
     0
290
     0
174
     0
 93
        1
 44
0.0
173
     0
291
     1
 45
0.0
1001
ACAD
1000
AcDbSavedByObjectVersion
1070
     0
  0
VISUALSTYLE
  5
29
102
{ACAD_REACTORS
330
28
102
}
330
28
100
AcDbVisualStyle
  2
Flat
 70
     0
 71
     2
 72
     1
 73
     1
 90
        2
 40
-0.6
 41
30.0
 62
     5
 63
     7
 74
     0
 91
        4
 64
     7
 65
   257
 75
     1
175
     1
 42
1.0
 92
        8
 66
     7
 43
1.0
 76
     1
 77
     6
 78
     2
 67
     7
 79
     5
170
     0
171
     0
290
     0
174
     0
 93
       13
 44
0.0
173
     0
291
     1
 45
0.0
1001
ACAD
1000
AcDbSavedByObjectVersion
1070
     0
  0
VISUALSTYLE
  5
2A
102
{ACAD_REACTORS
330
28
102
}
330
28
100
AcDbVisualStyle
  2
FlatWithEdges
 70
     1
 71
     2
 72
     1
 73
     1
 90
        2
 40
-0.6
 41
30.0
 62
     5
 63
     7
 74
     1
 91
        4
 64
     7
 65
   257
 75
     1
175
     1
 42
1.0
 92
        0
 66
   257
 43
1.0
 76
     1
 77
     6
 78
     2
 67
     7
 79
     5
170
     0
171
     0
290
     0
174
     0
 93
       13
 44
0.0
173
     0
291
     1
 45
0.0
1001
ACAD
1000
AcDbSavedByObjectVersion
1070
     0
  0
VISUALSTYLE
  5
2B
102
{ACAD_REACTORS
330
28
102
}
330
28
100
AcDbVisualStyle
  2
Gouraud
 70
     2
 71
     2
 72
     2
 73
     1
 90
        2
 40
-0.6
 41
30.0
 62
     5
 63
     7
 74
     0
 91
        4
 64
     7
 65
   257
 75
     1
175
     1
 42
1.0
 92
        0
 66
     7
 43
1.0
 76
     1
 77
     6
 78
     2
 67
     7
 79
     5
170
     0
171
     0
290
     0
174
     0
 93
       13
 44
0.0
173
     0
291
     1
 45
0.0
1001
ACAD
1000
AcDbSavedByObjectVersion
1070
     0
  0
VISUALSTYLE
  5
2C
102
{ACAD_REACTORS
330
28
102
}
330
28
100
AcDbVisualStyle
  2
GouraudWithEdges
 70
     3
 71
     2
 72
     2
 73
     1
 90
        2
 40
-0.6
 41
30.0
 62
     5
 63
     7
 74
     1
 91
        4
 64
     7
 65
   257
 75
     1
175
     1
 42
1.0
 92
        0
 66
   257
 43
1.0
 76
     1
 77
     6
 78
     2
 67
     7
 79
     5
170
     0
171
     0
290
     0
174
     0
 93
       13
 44
0.0
173
     0
291
     1
 45
0.0
1001
ACAD
1000
AcDbSavedByObjectVersion
1070
     0
  0
VISUALSTYLE
  5
36
102
{ACAD_REACTORS
330
28
102
}
330
28
100
AcDbVisualStyle
  2
Linepattern
 70
    14
 71
     2
 72
     2
 73
     0
 90
        0
 40
-0.6
 41
-30.0
 62
     5
 63
     7
 74
     1
 91
        4
 64
     7
 65
   257
 75
     7
175
     7
 42
1.0
 92
        8
 66
     7
 43
1.0
 76
     1
 77
     6
 78
     2
 67
     7
 79
     5
170
     0
171
     0
290
     0
174
     0
 93
        1
 44
0.0
173
     0
291
     1
 45
0.0
1001
ACAD
1000
AcDbSavedByObjectVersion
1070
     0
  0
VISUALSTYLE
  5
31
102
{ACAD_REACTORS
330
28
102
}
330
28
100
AcDbVisualStyle
  2
Realistic
 70
     8
 71
     2
 72
     2
 73
     0
 90
        0
 40
-0.6
 41
-30.0
 62
     5
 63
     7
 74
     1
 91
        0
 64
     7
 65
   257
 75
     1
175
     1
 42
1.0
 92
        8
 66
     8
 43
1.0
 76
     1
 77
     6
 78
     2
 67
     7
 79
     5
170
     0
171
     0
290
     0
174
     0
 93
       13
 44
0.0
173
     0
291
     0
 45
0.0
1001
ACAD
1000
AcDbSavedByObjectVersion
1070
     0
  0
VISUALSTYLE
  5
35
102
{ACAD_REACTORS
330
28
102
}
330
28
100
AcDbVisualStyle
  2
Thicken
 70
    13
 71
     2
 72
     2
 73
     0
 90
        0
 40
-0.6
 41
-30.0
 62
     5
 63
     7
 74
     1
 91
        4
 64
     7
 65
   257
 75
     1
175
     1
 42
1.0
 92
       12
 66
     7
 43
1.0
 76
     1
 77
     6
 78
     2
 67
     7
 79
     5
170
     0
171
     0
290
     0
174
     0
 93
        1
 44
0.0
173
     0
291
     1
 45
0.0
1001
ACAD
1000
AcDbSavedByObjectVersion
1070
     0
  0
DICTIONARYVAR
  5
366B
102
{ACAD_REACTORS
330
366A
102
}
330
366A
100
DictionaryVariables
280
     0
  1
STANDARD
  0
DICTIONARY
  5
460D
330
3511
100
AcDbDictionary
280
     1
281
     1
  3
ACAD_XREC_ROUNDTRIP
360
460E
  0
DICTIONARY
  5
460F
330
3510
100
AcDbDictionary
280
     1
281
     1
  3
ACAD_XREC_ROUNDTRIP
360
4610
  0
DICTIONARY
  5
4611
330
3512
100
AcDbDictionary
280
     1
281
     1
  3
ACAD_XREC_ROUNDTRIP
360
4612
  0
XRECORD
  5
460E
102
{ACAD_REACTORS
330
460D
102
}
330
460D
100
AcDbXrecord
280
     1
102
MATERIAL
148
0.0
149
0.0
149
0.0
 93
        0
 94
       63
282
     0
 72
     1
 77
     1
171
     1
175
     1
179
     1
273
     0
  0
XRECORD
  5
4610
102
{ACAD_REACTORS
330
460F
102
}
330
460F
100
AcDbXrecord
280
     1
102
MATERIAL
148
0.0
149
0.0
149
0.0
 93
        0
 94
       63
282
     0
 72
     1
 77
     1
171
     1
175
     1
179
     1
273
     0
  0
XRECORD
  5
4612
102
{ACAD_REACTORS
330
4611
102
}
330
4611
100
AcDbXrecord
280
     1
102
MATERIAL
148
0.0
149
0.0
149
0.0
 93
        0
 94
       63
282
     0
 72
     1
 77
     1
171
     1
175
     1
179
     1
273
     0
  0
ENDSEC
  0
EOF
